Вход на сайт

Имя:
Пароль:

· Забыли пароль?
logo
Портал Форум
Регистрация Вход


new_topic  reply_topic

  (Pop) Hovery Covery - Originaal Vol.2 - 1998, FLAC (image + .cue) lossless

pic
Год выпуска: 1998
Страна: Эстония
Жанр: Pop
Номер #: GLMM CD004 (Gunnar Loho Music Management)
Продолжительность: 0:45:21

Тип контента: альбом
Аудио кодек: FLAC
Тип рипа: (image + .cue)
Битрейт аудио: lossless

Треклист:

  1. Tõhus töö
  2. Sõnad (Tantsuversioon)
  3. Laululind
  4. Tuhandeid soove
  5. Hoia mul käest
  6. Vaid siin
  7. Leides sind
  8. Imedemaa
  9. Jõgi
  10. Sõnad (Aeglane versioon)

Код:

Exact Audio Copy V0.99 prebeta 5 from 4. May 2009

Отчёт EAC об извлечении, выполненном 17. января 2013, 1:37

Hovery Covery / Originaal Vol.2

Дисковод: TSSTcorpCDDVDW SH-S223B   Adapter: 2  ID: 0

Режим чтения                 : Достоверность
Использование точного потока : Да
Отключение кэша аудио        : Да
Использование указателей C2  : Нет

Коррекция смещения при чтении                     : 6
Способность читать области Lead-in и Lead-out     : Нет
Заполнение пропущенных сэмплов тишиной            : Да
Удаление блоков с тишиной в начале и конце        : Нет
При вычислениях CRC использовались нулевые сэмплы : Да
Интерфейс                                         : Встроенный Win32-интерфейс для Win NT/2000

Выходной формат : Внутренние WAV-операции
Формат сэмплов  : 44.100 Гц; 16 бит; стерео

TOC извлечённого CD

     Трек |   Старт  | Длительность | Начальный сектор | Конечный сектор
    ---------------------------------------------------------------------
       1  |  0:00.00 |    4:48.48   |           0      |      21647     
       2  |  4:48.48 |    4:39.09   |       21648      |      42581     
       3  |  9:27.57 |    4:11.09   |       42582      |      61415     
       4  | 13:38.66 |    4:56.33   |       61416      |      83648     
       5  | 18:35.24 |    4:44.00   |       83649      |     104948     
       6  | 23:19.24 |    4:36.48   |      104949      |     125696     
       7  | 27:55.72 |    4:23.45   |      125697      |     145466     
       8  | 32:19.42 |    4:23.03   |      145467      |     165194     
       9  | 36:42.45 |    3:42.69   |      165195      |     181913     
      10  | 40:25.39 |    4:56.16   |      181914      |     204129     

Характеристики диапазона извлечения и сообщения об ошибках

Выбранный диапазон

     Имя файла M:\Эстонская музыка\Hovery Covery (lossless)\Hovery Covery - Originaal Vol.2 (1998)\Hovery Covery - Originaal Vol.2.wav

     Пиковый уровень 96.7 %
     Качество диапазона 100.0 %
     CRC теста D736EE8F
     CRC копии D736EE8F
     Копирование... OK

Ошибок не произошло

 
AccurateRip: сводка
 
Трек  1  точное извлечение (доверие 1)  [68DF80A7]
Трек  2  точное извлечение (доверие 1)  [8AA5BF51]
Трек  3  точное извлечение (доверие 1)  [48DEC1F6]
Трек  4  точное извлечение (доверие 1)  [86E3BD54]
Трек  5  точное извлечение (доверие 1)  [CB3A5041]
Трек  6  точное извлечение (доверие 1)  [032CA941]
Трек  7  точное извлечение (доверие 1)  [4BEBA6CC]
Трек  8  точное извлечение (доверие 1)  [522454B0]
Трек  9  точное извлечение (доверие 1)  [BD6A2C94]
Трек 10  точное извлечение (доверие 1)  [E16426A5]
 
Все треки извлечены точно

Конец отчёта
pic
Спонсором альбома выступила минеральная вода Värska, названная по одной из волостей страны, где её добывают. Наверху коврика можно увидеть надпись AS VÄRSKA VESI ESITLEB (АО ВОДА ВЯРСКА ПРЕДСТАВЛЯЕТ). Буклет альбома оформлен в стиле этикетки этой минеральной воды, с обратной стороны буклета есть даже реклама воды. Сейчас, спустя 15 лет, этикетка конечно поменялась, но данный альбом всегда будет напоминать именно ту минералку
dimassamid вот это да, такие рары поперли. Спасибо тебе огромное за этот альбом

Страница 1 из 1

new_topic  reply_topic

Текущее время: 23-Сен 00:00
Часовой пояс: GMT + 4

m Сделано с любовью PR-CY.ru Каталог webplus.info