Вход на сайт

Имя:
Пароль:

· Забыли пароль?
logo
Портал Форум
Регистрация Вход


new_topic  reply_topic

  (Trance, Euro House) Haddaway - What Is Love (Reloaded) (CDM) (2003), WAV (tracks + .cue), lossless

Haddaway - What Is Love (Reloaded)

pic
Жанр: Trance, Euro House
Страна: Europe
Год выпуска: 2003
Лейбл: Kontor Records
Номер #: 0149935KON
Продолжительность: 00:30:57

Тип издания: Maxi-Single
Аудио кодек: WAV
Тип рипа: (tracks + .cue)
Битрейт аудио: lossless

Треклист:
01. What Is Love (Reloaded) (Video Mix) (03:17)
02. What Is Love (Reloaded) (Reloaded Mix) (06:11)
03. What Is Love (Reloaded) (What Is Club Mix) (06:40)
04. What Is Love (Reloaded) (Jens O.'S Hard Remix) (05:32)
05. What Is Love (Reloaded) (Radio Edit) (02:54)
06. What Is Love (Reloaded) (Lunaris Remix) (06:21)

Код:

Exact Audio Copy V1.0 beta 3 from 29. August 2011

EAC extraction logfile from 21. January 2013, 22:21

Haddaway / What Is Love (Reloaded)

Used drive  : Optiarc DVD RW AD-7200S   Adapter: 1  ID: 1

Read mode               : Secure
Utilize accurate stream : Yes
Defeat audio cache      : Yes
Make use of C2 pointers : No

Read offset correction                      : 48
Overread into Lead-In and Lead-Out          : No
Fill up missing offset samples with silence : Yes
Delete leading and trailing silent blocks   : No
Null samples used in CRC calculations       : Yes
Used interface                              : Native Win32 interface for Win NT & 2000
Gap handling                                : Appended to previous track

Used output format : Internal WAV Routines
Sample format      : 44.100 Hz; 16 Bit; Stereo

TOC of the extracted CD

     Track |   Start  |  Length  | Start sector | End sector
    ---------------------------------------------------------
        1  |  0:00.00 |  3:17.71 |         0    |    14845   
        2  |  3:17.71 |  6:11.07 |     14846    |    42677   
        3  |  9:29.03 |  6:40.13 |     42678    |    72690   
        4  | 16:09.16 |  5:32.61 |     72691    |    97651   
        5  | 21:42.02 |  2:54.65 |     97652    |   110766   
        6  | 24:36.67 |  6:21.07 |    110767    |   139348   

Track  1

     Filename C:\Users\Blaze\Desktop\Haddaway\01. Haddaway - What Is Love (Reloaded) (Video Mix).wav

     Pre-gap length  0:00:02.00

     Peak level 100.0 %
     Extraction speed 2.5 X
     Track quality 100.0 %
     Test CRC F4352CA8
     Copy CRC F4352CA8
     Copy OK

Track  2

     Filename C:\Users\Blaze\Desktop\Haddaway\02. Haddaway - What Is Love (Reloaded) (Reloaded Mix).wav

     Peak level 100.0 %
     Extraction speed 2.9 X
     Track quality 100.0 %
     Test CRC 17BB2BB0
     Copy CRC 17BB2BB0
     Copy OK

Track  3

     Filename C:\Users\Blaze\Desktop\Haddaway\03. Haddaway - What Is Love (Reloaded) (What Is Club Mix).wav

     Peak level 100.0 %
     Extraction speed 3.3 X
     Track quality 100.0 %
     Test CRC C9EC8ACF
     Copy CRC C9EC8ACF
     Copy OK

Track  4

     Filename C:\Users\Blaze\Desktop\Haddaway\04. Haddaway - What Is Love (Reloaded) (Jens O.'s Hard Remix).wav

     Peak level 100.0 %
     Extraction speed 3.6 X
     Track quality 100.0 %
     Test CRC 8ABA46B2
     Copy CRC 8ABA46B2
     Copy OK

Track  5

     Filename C:\Users\Blaze\Desktop\Haddaway\05. Haddaway - What Is Love (Reloaded) (Radio Edit).wav

     Peak level 100.0 %
     Extraction speed 2.7 X
     Track quality 100.0 %
     Test CRC 7C1CC424
     Copy CRC 7C1CC424
     Copy OK

Track  6

     Filename C:\Users\Blaze\Desktop\Haddaway\06. Haddaway - What Is Love (Reloaded) (Lunaris Remix).wav

     Peak level 100.0 %
     Extraction speed 4.0 X
     Track quality 100.0 %
     Test CRC A3DF365B
     Copy CRC A3DF365B
     Copy OK

No errors occurred

End of status report

==== Log checksum 719188FEF137AB675D181D7D1997282D2EAEFC7835FF8A2859B7C6923A35FD82 ====

Код:

REM GENRE Trance
REM DATE 2003
REM DISCID 4F074106
REM COMMENT "ExactAudioCopy v1.0b3"
PERFORMER "Haddaway"
TITLE "What Is Love (Reloaded)"
FILE "01. Haddaway - What Is Love (Reloaded) (Video Mix).wav" WAVE
  TRACK 01 AUDIO
    TITLE "What Is Love (Reloaded) (Video Mix)"
    PERFORMER "Haddaway"
    FLAGS DCP
    INDEX 01 00:00:00
FILE "02. Haddaway - What Is Love (Reloaded) (Reloaded Mix).wav" WAVE
  TRACK 02 AUDIO
    TITLE "What Is Love (Reloaded) (Reloaded Mix)"
    PERFORMER "Haddaway"
    FLAGS DCP
    INDEX 01 00:00:00
FILE "03. Haddaway - What Is Love (Reloaded) (What Is Club Mix).wav" WAVE
  TRACK 03 AUDIO
    TITLE "What Is Love (Reloaded) (What Is Club Mix)"
    PERFORMER "Haddaway"
    FLAGS DCP
    INDEX 01 00:00:00
FILE "04. Haddaway - What Is Love (Reloaded) (Jens O.'s Hard Remix).wav" WAVE
  TRACK 04 AUDIO
    TITLE "What Is Love (Reloaded) (Jens O.'s Hard Remix)"
    PERFORMER "Haddaway"
    FLAGS DCP
    INDEX 01 00:00:00
FILE "05. Haddaway - What Is Love (Reloaded) (Radio Edit).wav" WAVE
  TRACK 05 AUDIO
    TITLE "What Is Love (Reloaded) (Radio Edit)"
    PERFORMER "Haddaway"
    FLAGS DCP
    INDEX 01 00:00:00
FILE "06. Haddaway - What Is Love (Reloaded) (Lunaris Remix).wav" WAVE
  TRACK 06 AUDIO
    TITLE "What Is Love (Reloaded) (Lunaris Remix)"
    PERFORMER "Haddaway"
    FLAGS DCP
    INDEX 01 00:00:00
Доп. информация: Прошу модераторов поставить зеленый статус данной раздаче.
Great !!!
THX
thanks for upload

Страница 1 из 1

new_topic  reply_topic

Текущее время: 25-Июл 03:58
Часовой пояс: GMT + 4

m Сделано с любовью