Вход на сайт

Имя:
Пароль:

· Забыли пароль?
logo
Портал Форум
Регистрация Вход


new_topic  reply_topic

  (Hip-Hop, Rap) Eric Singleton Vs. Shaggy‎ - Sexy Girl 2000, FLAC (image + .cue), lossless

pic
Год выпуска: 2000
Страна: Jamaica, America
Производитель: Germany
Жанр: Hip-Hop, Rap
Номер #: 74321 76491 2 ( Hansa )
Продолжительность: 31:31

Тип издания: сингл
Аудио кодек: FLAC
Тип рипа: (image + .cue)
Битрейт аудио: lossless

Треклист:

01. Sexy Girl ( Radio Edit 1 )
02. Sexy Girl ( Radio Edit 2 )
03. Sexy Girl ( Rock Version )
04. Sexy Girl ( Extended Version )
05. Sexy Girl ( Dub Version )
06. Sexy Girl ( Radio Edit 3 )
07. Sexy Girl ( Full Length )
08. Sexy Girl ( Full Length-Boombastic Version )

Код:

Exact Audio Copy V0.99 prebeta 5 from 4. May 2009

Отчёт EAC об извлечении, выполненном 27. апреля 2013, 19:57

Eric Singleton vs. Shaggy / Sexy Girl

Дисковод: PLEXTOR DVDR   PX-800A   Adapter: 0  ID: 0

Режим чтения                 : Достоверность
Использование точного потока : Да
Отключение кэша аудио        : Да
Использование указателей C2  : Нет

Коррекция смещения при чтении                     : 48
Способность читать области Lead-in и Lead-out     : Нет
Заполнение пропущенных сэмплов тишиной            : Да
Удаление блоков с тишиной в начале и конце        : Нет
При вычислениях CRC использовались нулевые сэмплы : Да
Интерфейс                                         : Встроенный Win32-интерфейс для Win NT/2000

Выходной формат : Внутренние WAV-операции
Формат сэмплов  : 44.100 Гц; 16 бит; стерео

TOC извлечённого CD

     Трек |   Старт  | Длительность | Начальный сектор | Конечный сектор
    ---------------------------------------------------------------------
       1  |  0:00.32 |    3:22.13   |          32      |      15194     
       2  |  3:22.45 |    3:21.62   |       15195      |      30331     
       3  |  6:44.32 |    3:18.20   |       30332      |      45201     
       4  | 10:02.52 |    6:13.23   |       45202      |      73199     
       5  | 16:16.00 |    3:56.32   |       73200      |      90931     
       6  | 20:12.32 |    3:21.58   |       90932      |     106064     
       7  | 23:34.15 |    4:00.12   |      106065      |     124076     
       8  | 27:34.27 |    3:57.05   |      124077      |     141856     

Характеристики диапазона извлечения и сообщения об ошибках

Выбранный диапазон

     Имя файла C:\Temp\Образы\Eric Singleton vs. Shaggy - Sexy Girl.wav

     Пиковый уровень 100.0 %
     Качество диапазона 99.9 %
     CRC теста 857A7B70
     CRC копии 857A7B70
     Копирование... OK

Ошибок не произошло

 
AccurateRip: сводка
 
Трек  1  точное извлечение (доверие 1)  [34A249E6]
Трек  2  точное извлечение (доверие 1)  [6062619C]
Трек  3  точное извлечение (доверие 1)  [CA49B5CA]
Трек  4  точное извлечение (доверие 1)  [FD6A2D31]
Трек  5  точное извлечение (доверие 1)  [43256A76]
Трек  6  точное извлечение (доверие 1)  [DD4AFFAD]
Трек  7  точное извлечение (доверие 1)  [F480DE6C]
Трек  8  точное извлечение (доверие 1)  [3E5A0A22]
 
Все треки извлечены точно

Конец отчёта

Страница 1 из 1

new_topic  reply_topic

Текущее время: 25-Июн 02:11
Часовой пояс: GMT + 4

m Сделано с любовью PR-CY.ru Каталог webplus.info