Вход на сайт

Имя:
Пароль:

· Забыли пароль?
logo
Портал Форум
Регистрация Вход


new_topic  reply_topic

  (Pop) Jõuluõhtu - 2005, FLAC (image + .cue) lossless

pic
Jõuluõhtu
Рождественский сочельник


Год выпуска: 2005
Страна: Эстония
Жанр: Pop
Номер #: REC 4742115 000808 (Records 2000)
Продолжительность: 1:19:53

Тип издания: сборник
Аудио кодек: FLAC
Тип рипа: (image + .cue)
Битрейт аудио: lossless

Треклист:

  1. Cardinals - Armastuse tee (Jõuluõhtu mix)
  2. N-Euro - Ohh Kuusepuu (Jõuluõhtu mix)
  3. Esimees feat. Klamber - Aisakell
  4. Estin - Jõuluõhtul kodus
  5. Marco - Las lendlevad soovid tuules
  6. Thadeé - Talvetee
  7. Mono Fans - See talv (Jõuluõhtu mix)
  8. Hovery Covery - Ootusärevus
  9. Jüri Homenja - Suudlus külmas öös
  10. Mari-Liis - Tuhandeid soove
  11. Click OK - Kui kord saabub jõulumees
  12. Anne Veski - Kaunis jõuluaeg
  13. Jõulukellade orkester - Vaikivad jõulud
  14. Allan Sarri - Maarja poeg
  15. Arctic Madness 2 - Häid jõule Kõigile!
  16. Jüri Homenja - Jõuluootus
  17. Hovery Covery, Anaconda, Marco, Jüri Homenja, Erich Krieger - Unistus jääb
  18. Indigo - Aasta uus
  19. Marco - Küünlaleek
  20. Duubel+ - Gloria (Jõuluõhtu mix)
  21. Hovery Covery - Kes on see magav lapsuke
  22. Mait Maltis - Ave Maria
  23. Mari-Liis - Rõõm saatmas sind
  24. Cardinals - Jõuluõhtu

Код:

Exact Audio Copy V0.99 prebeta 5 from 4. May 2009

Отчёт EAC об извлечении, выполненном 18. мая 2013, 15:58

Various / Jouluohtu

Дисковод: TSSTcorpCDDVDW SH-224BB   Adapter: 1  ID: 0

Режим чтения                 : Достоверность
Использование точного потока : Да
Отключение кэша аудио        : Да
Использование указателей C2  : Нет

Коррекция смещения при чтении                     : 6
Способность читать области Lead-in и Lead-out     : Нет
Заполнение пропущенных сэмплов тишиной            : Да
Удаление блоков с тишиной в начале и конце        : Нет
При вычислениях CRC использовались нулевые сэмплы : Да
Интерфейс                                         : Встроенный Win32-интерфейс для Win NT/2000

Выходной формат : Внутренние WAV-операции
Формат сэмплов  : 44.100 Гц; 16 бит; стерео

TOC извлечённого CD

     Трек |   Старт  | Длительность | Начальный сектор | Конечный сектор
    ---------------------------------------------------------------------
       1  |  0:00.00 |    3:43.41   |           0      |      16765     
       2  |  3:43.41 |    2:35.16   |       16766      |      28406     
       3  |  6:18.57 |    2:28.61   |       28407      |      39567     
       4  |  8:47.43 |    3:58.07   |       39568      |      57424     
       5  | 12:45.50 |    3:12.37   |       57425      |      71861     
       6  | 15:58.12 |    3:28.54   |       71862      |      87515     
       7  | 19:26.66 |    3:38.50   |       87516      |     103915     
       8  | 23:05.41 |    3:06.66   |      103916      |     117931     
       9  | 26:12.32 |    4:01.09   |      117932      |     136015     
      10  | 30:13.41 |    3:21.54   |      136016      |     151144     
      11  | 33:35.20 |    2:54.72   |      151145      |     164266     
      12  | 36:30.17 |    3:23.28   |      164267      |     179519     
      13  | 39:53.45 |    2:58.09   |      179520      |     192878     
      14  | 42:51.54 |    2:37.66   |      192879      |     204719     
      15  | 45:29.45 |    3:39.07   |      204720      |     221151     
      16  | 49:08.52 |    3:30.43   |      221152      |     236944     
      17  | 52:39.20 |    4:11.39   |      236945      |     255808     
      18  | 56:50.59 |    3:20.37   |      255809      |     270845     
      19  | 60:11.21 |    3:13.53   |      270846      |     285373     
      20  | 63:24.74 |    3:37.14   |      285374      |     301662     
      21  | 67:02.13 |    2:50.52   |      301663      |     314464     
      22  | 69:52.65 |    3:20.54   |      314465      |     329518     
      23  | 73:13.44 |    2:57.33   |      329519      |     342826     
      24  | 76:11.02 |    3:42.05   |      342827      |     359481     

Характеристики диапазона извлечения и сообщения об ошибках

Выбранный диапазон

     Имя файла M:\Эстонская музыка\Сборники\Jouluohtu (2005)\Jouluohtu.wav

     Пиковый уровень 100.0 %
     Качество диапазона 100.0 %
     CRC теста 01703F61
     CRC копии 01703F61
     Копирование... OK

Ошибок не произошло

 
AccurateRip: сводка
 
Трек  1  нет в базе данных
Трек  2  нет в базе данных
Трек  3  нет в базе данных
Трек  4  нет в базе данных
Трек  5  нет в базе данных
Трек  6  нет в базе данных
Трек  7  нет в базе данных
Трек  8  нет в базе данных
Трек  9  нет в базе данных
Трек 10  нет в базе данных
Трек 11  нет в базе данных
Трек 12  нет в базе данных
Трек 13  нет в базе данных
Трек 14  нет в базе данных
Трек 15  нет в базе данных
Трек 16  нет в базе данных
Трек 17  нет в базе данных
Трек 18  нет в базе данных
Трек 19  нет в базе данных
Трек 20  нет в базе данных
Трек 21  нет в базе данных
Трек 22  нет в базе данных
Трек 23  нет в базе данных
Трек 24  нет в базе данных
 
Ни одного трека нет в базе AccurateRip

Конец отчёта

Страница 1 из 1

new_topic  reply_topic

Текущее время: 19-Май 14:41
Часовой пояс: GMT + 4

m Сделано с любовью