Вход на сайт

Имя:
Пароль:

· Забыли пароль?
logo
Портал Форум
Регистрация Вход


new_topic  reply_topic

  (Hip-Hop) DUICE - 2 Singles 1992, 1994, FLAC tracks, lossless

pic
pic
Год выпуска: 1992
Страна: USA
Производитель: US
Жанр: Hip-Hop
Лейбл - Номер по каталогу: Tony Mercedes Records - TMR 2 3089, Bellmark Records – TMR 2 3089
Продолжительность: 00:21:44

Тип издания: сингл
Аудио кодек: FLAC
Тип рипа: tracks
Битрейт аудио: lossless

Barcode: 0 53363-3089-2 4
Matrix Code: TMR23089 (V) .

Треклист:

1. Dazzey Duks (Radio Version)
2. Dazzey Duks (Instrumental)
3. Dazzey Duks (Mega Mix)
4. Dazzey Duks (Low Rider Mix)
5. Dazzey Duks (Ruffhouse Mix)

Доп. информация: Очень редкий релиз! Насколько я смог понять, этот сингл они сделали на волне популярности TAG TEAM, буклет "edel" на немецком языке. Самый летний релиз! Сканы обложек, диска и матрицы диска сделаны с разрешением 600 dpi + фото диска. Так же приложил принтскрин-файл теста зазоров, так как первый трек имеет предзазор > 2 секунд!
pic
Год выпуска: 1994
Страна: USA
Производитель: Germany
Жанр: Hip-Hop
Лейбл - Номер по каталогу: Club Tools – CLU 6039-5
Продолжительность: 00:21:44

Тип издания: сингл
Аудио кодек: FLAC
Тип рипа: tracks
Битрейт аудио: lossless

Barcode: 7 82124 60395 3
Matrix Code: OPTIMAL Germany CLU 6039-5
Label Code: LC 4923

Треклист:

1. Dazzey Duks (Radio Version) (3:59)
2. Dazzey Duks (Mega Mix) (3:59)
3. Dazzey Duks (Low Rider Mix) (3:58)
4. Dazzey Duks (Ruffhouse Mix) (5:12)
5. Dazzey Duks (Instrumental) (4:02)

Доп. информация: Сканы обложек, диска и матрицы диска сделаны с разрешением 600 dpi + фото диска.

Код:

Exact Audio Copy V1.0 beta 3 from 29. August 2011

Отчёт EAC об извлечении, выполненном 24. мая 2013, 16:24

DUICE / Dazzey Duks

Дисковод: ASUS    DRW-2014L1T   Adapter: 4  ID: 0

Режим чтения                 : Достоверность
Использование точного потока : Да
Отключение кэша аудио        : Да
Использование указателей C2  : Нет

Коррекция смещения при чтении                     : 6
Способность читать области Lead-in и Lead-out     : Нет
Заполнение пропущенных сэмплов тишиной            : Да
Удаление блоков с тишиной в начале и конце        : Нет
При вычислениях CRC использовались нулевые сэмплы : Да
Интерфейс                                         : Встроенный Win32-интерфейс для Win NT/2000
Обработка зазоров                                 : Добавлено к предыдущему треку

Выходной формат          : Пользовательский кодировщик
Выбранный битрейт        : 1024 kBit/s
Качество                 : Высокий
Добавление ID3-тега      : Нет
Утилита сжатия           : C:\Program Files\Exact Audio Copy\FLAC\FLAC.EXE
Дополнительные параметры : -6 -V -T "ARTIST=%artist%" -T "TITLE=%title%" -T "ALBUM=%albumtitle%" -T "DATE=%year%" -T "TRACKNUMBER=%tracknr%" -T "GENRE=%genre%" -T "COMMENT=%comment%" -T "BAND=%albuminterpret%" -T "ALBUMARTIST=%albuminterpret%" -T "COMPOSER=%composer%" %haslyrics%--tag-from-file=LYRICS="%lyricsfile%"%haslyrics% -T "DISCNUMBER=%cdnumber%" -T "TOTALDISCS=%totalcds%" -T "TOTALTRACKS=%numtracks%" %hascover%--picture="%coverfile%"%hascover% %source% -o %dest%

TOC извлечённого CD

     Трек |   Старт  | Длительность | Начальный сектор | Конечный сектор
    ---------------------------------------------------------------------
       1  |  0:00.65 |    4:04.37   |          65      |      18401     
       2  |  4:05.27 |    4:15.15   |       18402      |      37541     
       3  |  8:20.42 |    4:11.73   |       37542      |      56439     
       4  | 12:32.40 |    3:59.70   |       56440      |      74434     
       5  | 16:32.35 |    5:12.22   |       74435      |      97856     

Трек  1

     Имя файла E:\This EAC has made Federal\DUICE - Dazzey Duks (Radio Version).wav

     Длина предзазора  0:00:02.65

     Пиковый уровень 47.0 %
     Скорость извлечения 5.4 X
     Качество трека 100.0 %
     CRC теста B184E05E
     CRC копии B184E05E
     Точное извлечение (достоверность 2)  [BD6838BB]  (AR v2)
     Копирование... OK

Трек  2

     Имя файла E:\This EAC has made Federal\DUICE - Dazzey Duks (Instrumental).wav

     Длина предзазора  0:00:04.69

     Пиковый уровень 51.8 %
     Скорость извлечения 6.0 X
     Качество трека 100.0 %
     CRC теста CEB6EE4C
     CRC копии CEB6EE4C
     Точное извлечение (достоверность 2)  [5DD411E3]  (AR v2)
     Копирование... OK

Трек  3

     Имя файла E:\This EAC has made Federal\DUICE - Dazzey Duks (Mega Mix).wav

     Длина предзазора  0:00:13.67

     Пиковый уровень 76.6 %
     Скорость извлечения 4.9 X
     Качество трека 99.9 %
     CRC теста 22403491
     CRC копии 22403491
     Точное извлечение (достоверность 2)  [35DE3526]  (AR v2)
     Копирование... OK

Трек  4

     Имя файла E:\This EAC has made Federal\DUICE - Dazzey Duks (Low Rider Mix).wav

     Длина предзазора  0:00:12.02

     Пиковый уровень 78.8 %
     Скорость извлечения 6.9 X
     Качество трека 100.0 %
     CRC теста F07994B0
     CRC копии F07994B0
     Точное извлечение (достоверность 2)  [CDFF1327]  (AR v2)
     Копирование... OK

Трек  5

     Имя файла E:\This EAC has made Federal\DUICE - Dazzey Duks (Ruffhouse Mix).wav

     Длина предзазора  0:00:00.65

     Пиковый уровень 85.5 %
     Скорость извлечения 7.7 X
     Качество трека 100.0 %
     CRC теста 141AB09A
     CRC копии 141AB09A
     Точное извлечение (достоверность 2)  [45042F94]  (AR v2)
     Копирование... OK

Все треки извлечены точно

Ошибок не произошло

Конец отчёта

==== Контрольная сумма отчёта ABAD8193DA4F255DF19B83304D646F70AFF4828D9B58BDEA051F6168CBCB7496 ====

Код:

Exact Audio Copy V1.0 beta 3 from 29. August 2011

Отчёт EAC об извлечении, выполненном 24. мая 2013, 16:04

DUICE / Dazzey Duks

Дисковод: ASUS    DRW-2014L1T   Adapter: 4  ID: 0

Режим чтения                 : Достоверность
Использование точного потока : Да
Отключение кэша аудио        : Да
Использование указателей C2  : Нет

Коррекция смещения при чтении                     : 6
Способность читать области Lead-in и Lead-out     : Нет
Заполнение пропущенных сэмплов тишиной            : Да
Удаление блоков с тишиной в начале и конце        : Нет
При вычислениях CRC использовались нулевые сэмплы : Да
Интерфейс                                         : Встроенный Win32-интерфейс для Win NT/2000
Обработка зазоров                                 : Добавлено к предыдущему треку

Выходной формат          : Пользовательский кодировщик
Выбранный битрейт        : 1024 kBit/s
Качество                 : Высокий
Добавление ID3-тега      : Нет
Утилита сжатия           : C:\Program Files\Exact Audio Copy\FLAC\FLAC.EXE
Дополнительные параметры : -6 -V -T "ARTIST=%artist%" -T "TITLE=%title%" -T "ALBUM=%albumtitle%" -T "DATE=%year%" -T "TRACKNUMBER=%tracknr%" -T "GENRE=%genre%" -T "COMMENT=%comment%" -T "BAND=%albuminterpret%" -T "ALBUMARTIST=%albuminterpret%" -T "COMPOSER=%composer%" %haslyrics%--tag-from-file=LYRICS="%lyricsfile%"%haslyrics% -T "DISCNUMBER=%cdnumber%" -T "TOTALDISCS=%totalcds%" -T "TOTALTRACKS=%numtracks%" %hascover%--picture="%coverfile%"%hascover% %source% -o %dest%

TOC извлечённого CD

     Трек |   Старт  | Длительность | Начальный сектор | Конечный сектор
    ---------------------------------------------------------------------
       1  |  0:00.00 |    4:02.12   |           0      |      18161     
       2  |  4:02.12 |    4:02.20   |       18162      |      36331     
       3  |  8:04.32 |    4:00.10   |       36332      |      54341     
       4  | 12:04.42 |    5:14.68   |       54342      |      77959     
       5  | 17:19.35 |    4:02.19   |       77960      |      96128     

Трек  1

     Имя файла E:\This EAC has made Federal\DUICE - Dazzey Duks (Radio Version).wav

     Длина предзазора  0:00:02.00

     Пиковый уровень 98.0 %
     Скорость извлечения 5.8 X
     Качество трека 100.0 %
     CRC теста D08D9BAE
     CRC копии D08D9BAE
     Трек не обнаружен в базе AccurateRip
     Копирование... OK

Трек  2

     Имя файла E:\This EAC has made Federal\DUICE - Dazzey Duks (Mega Mix).wav

     Длина предзазора  0:00:02.34

     Пиковый уровень 98.0 %
     Скорость извлечения 6.3 X
     Качество трека 100.0 %
     CRC теста 06F49FD5
     CRC копии 06F49FD5
     Трек не обнаружен в базе AccurateRip
     Копирование... OK

Трек  3

     Имя файла E:\This EAC has made Federal\DUICE - Dazzey Duks (Low Rider Mix).wav

     Длина предзазора  0:00:02.40

     Пиковый уровень 98.0 %
     Скорость извлечения 6.7 X
     Качество трека 100.0 %
     CRC теста 4CBE7EA4
     CRC копии 4CBE7EA4
     Трек не обнаружен в базе AccurateRip
     Копирование... OK

Трек  4

     Имя файла E:\This EAC has made Federal\DUICE - Dazzey Duks (Ruffhouse Mix).wav

     Длина предзазора  0:00:01.20

     Пиковый уровень 75.2 %
     Скорость извлечения 7.5 X
     Качество трека 100.0 %
     CRC теста 0EF0DE0D
     CRC копии 0EF0DE0D
     Трек не обнаружен в базе AccurateRip
     Копирование... OK

Трек  5

     Имя файла E:\This EAC has made Federal\DUICE - Dazzey Duks (Instrumental).wav

     Длина предзазора  0:00:02.43

     Пиковый уровень 98.0 %
     Скорость извлечения 7.7 X
     Качество трека 100.0 %
     CRC теста B70D87B8
     CRC копии B70D87B8
     Трек не обнаружен в базе AccurateRip
     Копирование... OK

Ни одного трека нет в базе AccurateRip

Ошибок не произошло

Конец отчёта

==== Контрольная сумма отчёта A0A76F49286E845FCBACBC89094839C4B61CDB79041B02D4B441004565C57C2B ====
Раздача обновлена, добавлен релиз DUICE - Dazzey Duks (Single) 1994.

Страница 1 из 1

new_topic  reply_topic

Текущее время: 25-Июн 01:22
Часовой пояс: GMT + 4

m Сделано с любовью PR-CY.ru Каталог webplus.info