Вход на сайт

Имя:
Пароль:

· Забыли пароль?
logo
Портал Форум
Регистрация Вход


new_topic  reply_topic

  (Ballad, Pop) Hannah - Ballaadid 2002, FLAC (image + .cue), lossless

pic
Год выпуска: 2002
Страна: Эстония
Производитель: Эстония
Жанр: Ballad, Pop
Номер #: нет (Up Music Production / Snowdog Records)
Продолжительность: 00:46:43

Тип издания: альбом
Аудио кодек: FLAC
Тип рипа: (image + .cue)
Битрейт аудио: lossless

Треклист:

01. Loodan
02. Salaja
03. Sinuta
04. Ei Suuda
05. Veelkord
06. Hellitav Hääl
07. Sind Otsima Jään
08. Me Vaid Lebame
09. Hopeless Love
10. Kaugel
11. Lõputud Ööd
12. Someone
13. Leidmata Sind
14. Siis
15. Blinded

Код:

Exact Audio Copy V0.99 prebeta 5 from 4. May 2009

Отчёт EAC об извлечении, выполненном 13. июня 2013, 23:23

Hannah / Ballaadid

Дисковод: HL-DT-STDVDRAM GSA-T50N   Adapter: 2  ID: 0

Режим чтения                 : Достоверность
Использование точного потока : Да
Отключение кэша аудио        : Да
Использование указателей C2  : Нет

Коррекция смещения при чтении                     : 667
Способность читать области Lead-in и Lead-out     : Нет
Заполнение пропущенных сэмплов тишиной            : Да
Удаление блоков с тишиной в начале и конце        : Нет
При вычислениях CRC использовались нулевые сэмплы : Да
Интерфейс                                         : Установленный внешний ASPI-интерфейс

Выходной формат : Внутренние WAV-операции
Формат сэмплов  : 44.100 Гц; 16 бит; стерео

TOC извлечённого CD

     Трек |   Старт  | Длительность | Начальный сектор | Конечный сектор
    ---------------------------------------------------------------------
       1  |  0:00.00 |    2:39.25   |           0      |      11949     
       2  |  2:39.25 |    3:48.47   |       11950      |      29096     
       3  |  6:27.72 |    2:59.15   |       29097      |      42536     
       4  |  9:27.12 |    2:40.48   |       42537      |      54584     
       5  | 12:07.60 |    3:02.15   |       54585      |      68249     
       6  | 15:10.00 |    3:52.05   |       68250      |      85654     
       7  | 19:02.05 |    2:59.22   |       85655      |      99101     
       8  | 22:01.27 |    3:21.55   |       99102      |     114231     
       9  | 25:23.07 |    2:53.70   |      114232      |     127276     
      10  | 28:17.02 |    2:45.35   |      127277      |     139686     
      11  | 31:02.37 |    3:48.23   |      139687      |     156809     
      12  | 34:50.60 |    2:45.70   |      156810      |     169254     
      13  | 37:36.55 |    3:49.70   |      169255      |     186499     
      14  | 41:26.50 |    2:20.42   |      186500      |     197041     
      15  | 43:47.17 |    2:56.48   |      197042      |     210289     

Характеристики диапазона извлечения и сообщения об ошибках

Выбранный диапазон

     Имя файла C:\Users\Alex\Desktop\Hannah - Ballaadid (2002)\Hannah - Ballaadid.wav

     Пиковый уровень 97.7 %
     Качество диапазона 100.0 %
     CRC теста 9D1A2F44
     CRC копии 9D1A2F44
     Копирование... OK

Ошибок не произошло

 
AccurateRip: сводка
 
Трек  1  точность не определена (достоверность 1)  [28097B42], AccurateRip вернул [28F3E38C]
Трек  2  точность не определена (достоверность 1)  [4F3B9892], AccurateRip вернул [C5C67D68]
Трек  3  точность не определена (достоверность 1)  [199274C0], AccurateRip вернул [02E12E96]
Трек  4  точность не определена (достоверность 1)  [B5275E37], AccurateRip вернул [950FB952]
Трек  5  точность не определена (достоверность 1)  [3A465FDC], AccurateRip вернул [FE257904]
Трек  6  точность не определена (достоверность 1)  [BF56560F], AccurateRip вернул [E7FDEAFF]
Трек  7  точность не определена (достоверность 1)  [CB61F0B9], AccurateRip вернул [E7A57FD1]
Трек  8  точность не определена (достоверность 1)  [BE631A73], AccurateRip вернул [594974AC]
Трек  9  точность не определена (достоверность 1)  [06FF77EA], AccurateRip вернул [51531FEE]
Трек 10  точность не определена (достоверность 1)  [9B569C77], AccurateRip вернул [C48D4713]
Трек 11  точность не определена (достоверность 1)  [EA1D6F57], AccurateRip вернул [230667AD]
Трек 12  точность не определена (достоверность 1)  [17BD3417], AccurateRip вернул [AE5DBA96]
Трек 13  точность не определена (достоверность 1)  [1EC6A960], AccurateRip вернул [0C99269F]
Трек 14  точность не определена (достоверность 1)  [099B1F9F], AccurateRip вернул [64EF9B34]
Трек 15  точность не определена (достоверность 1)  [874B2171], AccurateRip вернул [ECB0AC5C]
 
Ни один трек не прошёл проверки на точность
В вашей базе может быть иной вариант штамповки диска

Конец отчёта

У-у-у первый рар пошёл. Поздравляю.

Страница 1 из 1

new_topic  reply_topic

Текущее время: 23-Сен 01:35
Часовой пояс: GMT + 4

m Сделано с любовью PR-CY.ru Каталог webplus.info