Вход на сайт

Имя:
Пароль:

· Забыли пароль?
logo
Портал Форум
Регистрация Вход


new_topic  reply_topic

  (Ballad, Pop) Hannah - Õige Tasa (Ballaadid) 2010, FLAC (image + .cue), lossless

pic
Год выпуска: 2010
Страна: Эстония
Производитель: Великобритания
Жанр: Ballad, Pop
Номер #: CDSNOWD31 (Snowdog Records)
Продолжительность: 00:49:22

Тип издания: альбом
Аудио кодек: FLAC
Тип рипа: (image + .cue)
Битрейт аудио: lossless

Треклист:

01. Õige Tasa
02. Unistustemaa
03. Andeks Palun
04. Kui Oskame Vaid Hoida
05. Küll Tuleb Aeg
06. Mu Ema
07. Ma Näen
08. 8.oktoober
09. Põgenen Nüüd
10. Tule Kaasa
11. Liivale Jätsin Su Nime
12. Sel Talveööl

Код:

Exact Audio Copy V0.99 prebeta 5 from 4. May 2009

Отчёт EAC об извлечении, выполненном 13. июня 2013, 23:53

Hannah / Oige Tasa (Ballaadid)

Дисковод: HL-DT-STDVDRAM GSA-T50N   Adapter: 2  ID: 0

Режим чтения                 : Достоверность
Использование точного потока : Да
Отключение кэша аудио        : Да
Использование указателей C2  : Нет

Коррекция смещения при чтении                     : 667
Способность читать области Lead-in и Lead-out     : Нет
Заполнение пропущенных сэмплов тишиной            : Да
Удаление блоков с тишиной в начале и конце        : Нет
При вычислениях CRC использовались нулевые сэмплы : Да
Интерфейс                                         : Установленный внешний ASPI-интерфейс

Выходной формат : Внутренние WAV-операции
Формат сэмплов  : 44.100 Гц; 16 бит; стерео

TOC извлечённого CD

     Трек |   Старт  | Длительность | Начальный сектор | Конечный сектор
    ---------------------------------------------------------------------
       1  |  0:00.00 |    4:13.06   |           0      |      18980     
       2  |  4:13.06 |    3:28.59   |       18981      |      34639     
       3  |  7:41.65 |    3:46.12   |       34640      |      51601     
       4  | 11:28.02 |    4:00.39   |       51602      |      69640     
       5  | 15:28.41 |    4:15.47   |       69641      |      88812     
       6  | 19:44.13 |    3:58.19   |       88813      |     106681     
       7  | 23:42.32 |    5:20.10   |      106682      |     130691     
       8  | 29:02.42 |    4:34.60   |      130692      |     151301     
       9  | 33:37.27 |    3:05.11   |      151302      |     165187     
      10  | 36:42.38 |    4:07.45   |      165188      |     183757     
      11  | 40:50.08 |    3:30.57   |      183758      |     199564     
      12  | 44:20.65 |    5:01.43   |      199565      |     222182     

Характеристики диапазона извлечения и сообщения об ошибках

Выбранный диапазон

     Имя файла C:\Users\Alex\Desktop\Hannah - Oige Tasa (Ballaadid) (2010)\Hannah - Oige Tasa (Ballaadid).wav

     Пиковый уровень 98.8 %
     Качество диапазона 100.0 %
     CRC теста 0DB4672A
     CRC копии 0DB4672A
     Копирование... OK

Ошибок не произошло

 
AccurateRip: сводка
 
Трек  1  нет в базе данных
Трек  2  нет в базе данных
Трек  3  нет в базе данных
Трек  4  нет в базе данных
Трек  5  нет в базе данных
Трек  6  нет в базе данных
Трек  7  нет в базе данных
Трек  8  нет в базе данных
Трек  9  нет в базе данных
Трек 10  нет в базе данных
Трек 11  нет в базе данных
Трек 12  нет в базе данных
 
Ни одного трека нет в базе AccurateRip

Конец отчёта

Страница 1 из 1

new_topic  reply_topic

Текущее время: 23-Сен 01:00
Часовой пояс: GMT + 4

m Сделано с любовью PR-CY.ru Каталог webplus.info