Вход на сайт

Имя:
Пароль:

· Забыли пароль?
logo
Портал Форум
Регистрация Вход


new_topic  reply_topic

  (House) The Pitcher - Drink 1997, CD-Maxi, WAV (tracks + .cue), lossless

pic
Год выпуска: 1997
Страна: Germany
Жанр: House
Номер #: Heaven - SPV 055-16443 CDS
Тип издания: сингл
Аудио кодек: WAV
Тип рипа: (tracks + .cue)
Битрейт аудио: lossless

Треклист:

1) Drink (Radio Edit)
2) Drink (Club Mix)
3) Drink (Mangroove Mix)
4) Drink (Racoon Mix)


Доп. информация:
_______________________________________________
http://www.discogs.com/Pitcher-Drink/release/1322927

Код:

Exact Audio Copy V1.0 beta 3 from 29. August 2011

Отчёт EAC об извлечении, выполненном 17. июня 2013, 12:07

The Pitcher / Drink (cdm) 1997

Дисковод: TSSTcorpBDDVDW SE-506AB   Adapter: 2  ID: 0

Режим чтения                 : Достоверность
Использование точного потока : Да
Отключение кэша аудио        : Да
Использование указателей C2  : Нет

Коррекция смещения при чтении                     : 6
Способность читать области Lead-in и Lead-out     : Нет
Заполнение пропущенных сэмплов тишиной            : Да
Удаление блоков с тишиной в начале и конце        : Нет
При вычислениях CRC использовались нулевые сэмплы : Да
Интерфейс                                         : Встроенный Win32-интерфейс для Win NT/2000
Обработка зазоров                                 : Добавлено к предыдущему треку

Выходной формат : Внутренние WAV-операции
Формат сэмплов  : 44.100 Гц; 16 бит; стерео

TOC извлечённого CD

     Трек |   Старт  | Длительность | Начальный сектор | Конечный сектор
    ---------------------------------------------------------------------
       1  |  0:00.32 |    3:35.03   |          32      |      16159     
       2  |  3:35.35 |    6:31.27   |       16160      |      45511     
       3  | 10:06.62 |    6:04.63   |       45512      |      72874     
       4  | 16:11.50 |    6:50.57   |       72875      |     103681     

Трек  1

     Имя файла C:\2\[Flac] The Pitcher - Drink (cdm) 1998\01 Трек01.wav

     Длина предзазора  0:00:02.32

     Пиковый уровень 99.0 %
     Скорость извлечения 1.7 X
     Качество трека 100.0 %
     CRC теста BAFBEB47
     CRC копии BAFBEB47
     Трек не обнаружен в базе AccurateRip
     Копирование... OK

Трек  2

     Имя файла C:\2\[Flac] The Pitcher - Drink (cdm) 1998\02 Трек02.wav

     Длина предзазора  0:00:03.25

     Пиковый уровень 99.0 %
     Скорость извлечения 2.2 X
     Качество трека 100.0 %
     CRC теста 464F1C55
     CRC копии 464F1C55
     Трек не обнаружен в базе AccurateRip
     Копирование... OK

Трек  3

     Имя файла C:\2\[Flac] The Pitcher - Drink (cdm) 1998\03 Трек03.wav

     Длина предзазора  0:00:03.45

     Пиковый уровень 99.0 %
     Скорость извлечения 2.6 X
     Качество трека 99.9 %
     CRC теста BE176577
     CRC копии BE176577
     Трек не обнаружен в базе AccurateRip
     Копирование... OK

Трек  4

     Имя файла C:\2\[Flac] The Pitcher - Drink (cdm) 1998\04 Трек04.wav

     Длина предзазора  0:00:03.48

     Пиковый уровень 99.0 %
     Скорость извлечения 2.8 X
     Качество трека 100.0 %
     CRC теста 519BF2CF
     CRC копии 519BF2CF
     Трек не обнаружен в базе AccurateRip
     Копирование... OK

Ни одного трека нет в базе AccurateRip

Ошибок не произошло

Конец отчёта

==== Контрольная сумма отчёта 717A61DD1E37F425176A961FE97DF6E5E8B8E1396CF25ECF6FD4AABD423FF088 ====
Yeahhh!! Thanks!

Tell what do you need. Thanks!

Страница 1 из 1

new_topic  reply_topic

Текущее время: 06-Май 18:51
Часовой пояс: GMT + 4

m Сделано с любовью PR-CY.ru Каталог webplus.info