Вход на сайт

Имя:
Пароль:

· Забыли пароль?
logo
Портал Форум
Регистрация Вход


new_topic  reply_topic

  (Pop, Europop) Suntribe - Let's Get Loud - 2005, FLAC (image + .cue) lossless

pic
Год выпуска: 2005
Страна: Эстония
Производитель: Эстония
Жанр: Pop, Europop
Номер #: нет (Moonwalk)
Продолжительность: 0:15:19

Тип издания: сингл
Аудио кодек: FLAC
Тип рипа: (image + .cue)
Битрейт аудио: lossless

Треклист:

  1. Suntribe - Let's Get Loud (Original Version)
  2. Suntribe - Let's Get Loud (Extended Version)
  3. Suntribe feat. Moon Taxi - Let's Get Loud (Original Version)
  4. Suntribe feat. Moon Taxi - Let's Get Loud (Extended Version)


Доп. информация: Участницы группы Suntribe: Laura, Rebecca, Mari-Leen, Jaanika.
Очень редкий промо-сингл, выпущенный специально для конкурса Евровидение.

Код:

Exact Audio Copy V0.99 prebeta 5 from 4. May 2009

Отчёт EAC об извлечении, выполненном 12. июля 2013, 23:09

Suntribe / Let's Get Loud

Дисковод: TSSTcorpCDDVDW SH-224BB   Adapter: 1  ID: 0

Режим чтения                 : Достоверность
Использование точного потока : Да
Отключение кэша аудио        : Да
Использование указателей C2  : Нет

Коррекция смещения при чтении                     : 6
Способность читать области Lead-in и Lead-out     : Нет
Заполнение пропущенных сэмплов тишиной            : Да
Удаление блоков с тишиной в начале и конце        : Нет
При вычислениях CRC использовались нулевые сэмплы : Да
Интерфейс                                         : Встроенный Win32-интерфейс для Win NT/2000

Выходной формат : Внутренние WAV-операции
Формат сэмплов  : 44.100 Гц; 16 бит; стерео

TOC извлечённого CD

     Трек |   Старт  | Длительность | Начальный сектор | Конечный сектор
    ---------------------------------------------------------------------
       1  |  0:00.00 |    3:00.21   |           0      |      13520     
       2  |  3:00.21 |    4:02.50   |       13521      |      31720     
       3  |  7:02.71 |    3:50.56   |       31721      |      49026     
       4  | 10:53.52 |    4:25.58   |       49027      |      68959     

Характеристики диапазона извлечения и сообщения об ошибках

Выбранный диапазон

     Имя файла M:\Эстонская музыка\Suntribe (lossless)\Suntribe - Let's Get Loud (2005) promo\Suntribe - Let's Get Loud.wav

     Пиковый уровень 96.5 %
     Качество диапазона 100.0 %
     CRC теста ECD5231B
     CRC копии ECD5231B
     Копирование... OK

Ошибок не произошло

 
AccurateRip: сводка
 
Трек  1  нет в базе данных
Трек  2  нет в базе данных
Трек  3  нет в базе данных
Трек  4  нет в базе данных
 
Ни одного трека нет в базе AccurateRip

Конец отчёта

Страница 1 из 1

new_topic  reply_topic

Текущее время: 22-Сен 23:43
Часовой пояс: GMT + 4

m Сделано с любовью PR-CY.ru Каталог webplus.info