Вход на сайт

Имя:
Пароль:

· Забыли пароль?
logo
Портал Форум
Регистрация Вход


new_topic  reply_topic

  (Trip Hop, Big Beat) Mono ‎– Slimcea Girl 1997, FLAC (tracks + .cue), lossless

pic
Год выпуска: 1997
Страна: Europe
Жанр: Trip Hop, Big Beat
Номер #: Universal Records ‎– UMD 80428
Тип издания: сингл
Аудио кодек: FLAC
Тип рипа: (tracks + .cue)
Битрейт аудио: lossless

Треклист:

01) Slimcea Girl (LP Version)
02) Slimcea Girl (Aloof Remix)
03) Slimcea Girl (The Fat Boy Vocal)
04) Slimcea Girl (Sol Brothers London Dub Remix) (speed garage mix)
05) Slimcea Girl (The Danmass Remix)
06) Slimcea Girl (Fuzzed)


Доп. информация:
_______________________________________________
http://www.discogs.com/Mono-Slimcea-Girl/release/1323414

Код:

Exact Audio Copy V0.99 prebeta 5 from 4. May 2009

EAC extraction logfile from 28. July 2010, 11:21

Mono / Slimcea Girl

Used drive  : TSSTcorpCDDVDW SH-S222A   Adapter: 1  ID: 0

Read mode               : Secure
Utilize accurate stream : Yes
Defeat audio cache      : Yes
Make use of C2 pointers : No

Read offset correction                      : 6
Overread into Lead-In and Lead-Out          : No
Fill up missing offset samples with silence : Yes
Delete leading and trailing silent blocks   : No
Null samples used in CRC calculations       : Yes
Used interface                              : Installed external ASPI interface
Gap handling                                : Appended to previous track

Used output format              : User Defined Encoder
Selected bitrate                : 768 kBit/s
Quality                         : High
Add ID3 tag                     : No
Command line compressor         : C:\Program Files\Exact Audio Copy\FLAC\FLAC.EXE
Additional command line options : -V -8 -T "artist=%a" -T "title=%t" -T "album=%g" -T "date=%y" -T "tracknumber=%n" -T "genre=%m" %s 

TOC of the extracted CD

     Track |   Start  |  Length  | Start sector | End sector
    ---------------------------------------------------------
        1  |  0:00.00 |  3:47.50 |         0    |    17074   
        2  |  3:47.50 |  7:43.15 |     17075    |    51814   
        3  | 11:30.65 |  5:29.45 |     51815    |    76534   
        4  | 17:00.35 |  7:59.02 |     76535    |   112461   
        5  | 24:59.37 |  5:59.25 |    112462    |   139411   
        6  | 30:58.62 |  4:18.15 |    139412    |   158776   

Track  1

     Filename C:\EAC\Mono - Slimcea Girl - 1997\01 - Slimcea Girl.wav

     Pre-gap length  0:00:02.00

     Peak level 95.1 %
     Track quality 100.0 %
     Test CRC FAC44067
     Copy CRC FAC44067
     Track not present in AccurateRip database
     Copy OK

Track  2

     Filename C:\EAC\Mono - Slimcea Girl - 1997\02 - Slimcea Girl - Aloof Remix.wav

     Pre-gap length  0:00:00.02

     Peak level 95.1 %
     Track quality 99.9 %
     Test CRC AEFA9192
     Copy CRC AEFA9192
     Track not present in AccurateRip database
     Copy OK

Track  3

     Filename C:\EAC\Mono - Slimcea Girl - 1997\03 - Slimcea Girl - The Fat Boy Vocal.wav

     Pre-gap length  0:00:00.72

     Peak level 97.0 %
     Track quality 100.0 %
     Test CRC 1E2DB374
     Copy CRC 1E2DB374
     Track not present in AccurateRip database
     Copy OK

Track  4

     Filename C:\EAC\Mono - Slimcea Girl - 1997\04 - Slimcea Girl - Sol Brothers London Dub Remix.wav

     Pre-gap length  0:00:00.32

     Peak level 95.1 %
     Track quality 100.0 %
     Test CRC 7916A1E9
     Copy CRC 7916A1E9
     Track not present in AccurateRip database
     Copy OK

Track  5

     Filename C:\EAC\Mono - Slimcea Girl - 1997\05 - Slimcea Girl - The Danmass Remix.wav

     Pre-gap length  0:00:00.98

     Peak level 95.1 %
     Track quality 100.0 %
     Test CRC 7A468193
     Copy CRC 7A468193
     Track not present in AccurateRip database
     Copy OK

Track  6

     Filename C:\EAC\Mono - Slimcea Girl - 1997\06 - Slimcea Girl - Fuzzed.wav

     Pre-gap length  0:00:00.32

     Peak level 95.1 %
     Track quality 100.0 %
     Test CRC AD1B1F90
     Copy CRC AD1B1F90
     Track not present in AccurateRip database
     Copy OK

None of the tracks are present in the AccurateRip database

No errors occurred

End of status report

Страница 1 из 1

new_topic  reply_topic

Текущее время: 25-Июн 01:54
Часовой пояс: GMT + 4

m Сделано с любовью PR-CY.ru Каталог webplus.info