Вход на сайт

Имя:
Пароль:

· Забыли пароль?
logo
Портал Форум
Регистрация Вход


new_topic  reply_topic

  (Disco, Hi NRG) Trans-X - Hi-NRG - 2013, FLAC (image + .cue) lossless

pic
Год выпуска: 2013
Страна: Канада
Производитель: Россия
Жанр: Disco, Hi NRG, Synth-pop
Номер #: SP 0011 (SP Records)
Продолжительность: 0:49:49

Тип издания: альбом
Аудио кодек: FLAC
Тип рипа: (image + .cue)
Битрейт аудио: lossless

Треклист:

  1. L.O.V. 2012 (The Definitive Version)
  2. Human
  3. Transmission
  4. You're My Videostar
  5. XXX
  6. I Want To Be With You Tonight 2012
  7. Imagination 2012
  8. I'm Yours Tonight
  9. How Long Last Love
  10. Fascination 2012
  11. Into The Light

Код:

Exact Audio Copy V0.99 prebeta 5 from 4. May 2009

Отчёт EAC об извлечении, выполненном 31. октября 2013, 19:15

Trans-X / Hi-NRG

Дисковод: TSSTcorpCDDVDW SH-S223B   Adapter: 4  ID: 2

Режим чтения                 : Достоверность
Использование точного потока : Да
Отключение кэша аудио        : Да
Использование указателей C2  : Нет

Коррекция смещения при чтении                     : 6
Способность читать области Lead-in и Lead-out     : Нет
Заполнение пропущенных сэмплов тишиной            : Да
Удаление блоков с тишиной в начале и конце        : Нет
При вычислениях CRC использовались нулевые сэмплы : Да
Интерфейс                                         : Встроенный Win32-интерфейс для Win NT/2000

Выходной формат : Внутренние WAV-операции
Формат сэмплов  : 44.100 Гц; 16 бит; стерео

TOC извлечённого CD

     Трек |   Старт  | Длительность | Начальный сектор | Конечный сектор
    ---------------------------------------------------------------------
       1  |  0:00.00 |    5:59.71   |           0      |      26995     
       2  |  5:59.71 |    4:31.05   |       26996      |      47325     
       3  | 10:31.01 |    3:55.35   |       47326      |      64985     
       4  | 14:26.36 |    3:12.34   |       64986      |      79419     
       5  | 17:38.70 |    4:34.37   |       79420      |     100006     
       6  | 22:13.32 |    4:17.29   |      100007      |     119310     
       7  | 26:30.61 |    4:37.61   |      119311      |     140146     
       8  | 31:08.47 |    3:36.12   |      140147      |     156358     
       9  | 34:44.59 |    4:16.48   |      156359      |     175606     
      10  | 39:01.32 |    6:01.59   |      175607      |     202740     
      11  | 45:03.16 |    4:46.56   |      202741      |     224246     

Характеристики диапазона извлечения и сообщения об ошибках

Выбранный диапазон

     Имя файла M:\Italo-Disco\Trans-X (lossless)\Trans-X - Hi-NRG (2012)\Trans-X - Hi-NRG.wav

     Пиковый уровень 99.4 %
     Качество диапазона 100.0 %
     CRC теста 1A2C7272
     CRC копии 1A2C7272
     Копирование... OK

Ошибок не произошло

 
AccurateRip: сводка
 
Трек  1  нет в базе данных
Трек  2  нет в базе данных
Трек  3  нет в базе данных
Трек  4  нет в базе данных
Трек  5  нет в базе данных
Трек  6  нет в базе данных
Трек  7  нет в базе данных
Трек  8  нет в базе данных
Трек  9  нет в базе данных
Трек 10  нет в базе данных
Трек 11  нет в базе данных
 
Ни одного трека нет в базе AccurateRip

Конец отчёта

Страница 1 из 1

new_topic  reply_topic

Текущее время: 22-Июн 20:48
Часовой пояс: GMT + 4

m Сделано с любовью PR-CY.ru Каталог webplus.info