Вход на сайт

Имя:
Пароль:

· Забыли пароль?
logo
Портал Форум
Регистрация Вход


new_topic  reply_topic

  (Trance) Caater - Dance With You (Maxi Single) - 2000, WAV (tracks+.cue), lossless

pic
Год выпуска: 2000
Страна: Эстония
Производитель: Финляндия
Жанр: Trance
Номер#: EPD 669866 2 (Epidrome)
Продолжительность: 00:15:48

Тип издания: сингл
Аудио кодек: WAV
Тип рипа: (tracks+.cue)
Битрейт аудио: lossless

Треклист:

01. Dance With You (Radio Edit)
02. Dance With You (Extended Mix)
03. Dance With You (Coobalt DJ Remix)

Код:

Exact Audio Copy V0.99 prebeta 5 from 4. May 2009

Отчёт EAC об извлечении, выполненном 10. ноября 2013, 13:09

Caater / Dance With You (Maxi Single)

Дисковод: HL-DT-STDVDRAM GSA-T50N   Adapter: 2  ID: 0

Режим чтения                 : Достоверность
Использование точного потока : Да
Отключение кэша аудио        : Да
Использование указателей C2  : Нет

Коррекция смещения при чтении                     : 667
Способность читать области Lead-in и Lead-out     : Нет
Заполнение пропущенных сэмплов тишиной            : Да
Удаление блоков с тишиной в начале и конце        : Нет
При вычислениях CRC использовались нулевые сэмплы : Да
Интерфейс                                         : Встроенный Win32-интерфейс для Win NT/2000
Обработка зазоров                                 : Не обнаружено, добавлено к предыдущему треку

Выходной формат : Внутренние WAV-операции
Формат сэмплов  : 44.100 Гц; 16 бит; стерео

TOC извлечённого CD

     Трек |   Старт  | Длительность | Начальный сектор | Конечный сектор
    ---------------------------------------------------------------------
       1  |  0:00.00 |    3:45.37   |           0      |      16911     
       2  |  3:45.37 |    5:55.73   |       16912      |      43609     
       3  |  9:41.35 |    6:07.37   |       43610      |      71171     

Трек  1

     Имя файла C:\Users\Администратор\Desktop\EAC\Caater- Dance With You (Maxi Single)- Dance With You (Radio Edit).wav

     Пиковый уровень 99.9 %
     Качество трека 100.0 %
     CRC теста 2133D1F2
     CRC копии 2133D1F2
     Точность не определена (достоверность 1)  [71A62B93], AccurateRip вернул [09BBBBD9]
     Копирование... OK

Трек  2

     Имя файла C:\Users\Администратор\Desktop\EAC\Caater- Dance With You (Maxi Single)- Dance With You (Extended Mix).wav

     Пиковый уровень 99.9 %
     Качество трека 99.9 %
     CRC теста 921F2321
     CRC копии 921F2321
     Точность не определена (достоверность 1)  [A730C30D], AccurateRip вернул [E3B94234]
     Копирование... OK

Трек  3

     Имя файла C:\Users\Администратор\Desktop\EAC\Caater- Dance With You (Maxi Single)- Dance With You (Coobalt DJ Remix).wav

     Пиковый уровень 94.6 %
     Качество трека 100.0 %
     CRC теста E2F427EF
     CRC копии E2F427EF
     Точность не определена (достоверность 1)  [0370BA5B], AccurateRip вернул [15576E00]
     Копирование... OK

Ни один трек не прошёл проверки на точность
В вашей базе может быть иной вариант штамповки диска

Ошибок не произошло

Конец отчёта
Торрент перезалит. Добавлен CUE.

Страница 1 из 1

new_topic  reply_topic

Текущее время: 23-Сен 00:55
Часовой пояс: GMT + 4

m Сделано с любовью PR-CY.ru Каталог webplus.info