Вход на сайт

Имя:
Пароль:

· Забыли пароль?
logo
Портал Форум
Регистрация Вход


new_topic  reply_topic

  (Pop) Ice Cream - Oled minu järgi hull - 2003, FLAC (image + .cue) lossless

pic
Год выпуска: 2003
Страна: Эстония
Производитель: Эстония
Жанр: Pop
Номер #: TOP CD 1107 (TopTen)
Продолжительность: 0:42:16

Тип издания: альбом
Аудио кодек: FLAC
Тип рипа: (image + .cue)
Битрейт аудио: lossless

Треклист:

  1. Helista mulle mobiilile
  2. Ootan suve
  3. Ice Sha
  4. Usu endasse
  5. Oled minu järgi hull
  6. A Friend of Mine
  7. Teenage Girl
  8. Vaatan kuud
  9. Salasoovid
  10. Osta mulle
  11. Tahan saada staariks
  12. Moonwalker

Код:

Exact Audio Copy V0.99 prebeta 5 from 4. May 2009

Отчёт EAC об извлечении, выполненном 10. ноября 2013, 22:46

Ice Cream / Oled minu jargi hull

Дисковод: TSSTcorpCDDVDW SH-S223B   Adapter: 4  ID: 2

Режим чтения                 : Достоверность
Использование точного потока : Да
Отключение кэша аудио        : Да
Использование указателей C2  : Нет

Коррекция смещения при чтении                     : 6
Способность читать области Lead-in и Lead-out     : Нет
Заполнение пропущенных сэмплов тишиной            : Да
Удаление блоков с тишиной в начале и конце        : Нет
При вычислениях CRC использовались нулевые сэмплы : Да
Интерфейс                                         : Встроенный Win32-интерфейс для Win NT/2000

Выходной формат : Внутренние WAV-операции
Формат сэмплов  : 44.100 Гц; 16 бит; стерео

TOC извлечённого CD

     Трек |   Старт  | Длительность | Начальный сектор | Конечный сектор
    ---------------------------------------------------------------------
       1  |  0:00.00 |    3:01.42   |           0      |      13616     
       2  |  3:01.42 |    3:36.50   |       13617      |      29866     
       3  |  6:38.17 |    3:36.25   |       29867      |      46091     
       4  | 10:14.42 |    4:19.55   |       46092      |      65571     
       5  | 14:34.22 |    3:23.68   |       65572      |      80864     
       6  | 17:58.15 |    3:32.27   |       80865      |      96791     
       7  | 21:30.42 |    3:06.05   |       96792      |     110746     
       8  | 24:36.47 |    3:21.38   |      110747      |     125859     
       9  | 27:58.10 |    4:07.70   |      125860      |     144454     
      10  | 32:06.05 |    2:31.12   |      144455      |     155791     
      11  | 34:37.17 |    3:35.28   |      155792      |     171944     
      12  | 38:12.45 |    4:03.70   |      171945      |     190239     

Характеристики диапазона извлечения и сообщения об ошибках

Выбранный диапазон

     Имя файла M:\Эстонская музыка\Ice Cream (lossless)\Ice Cream - Oled minu jargi hull (2003)\Ice Cream - Oled minu jargi hull.wav

     Пиковый уровень 97.7 %
     Качество диапазона 100.0 %
     CRC теста FC4DFECA
     CRC копии FC4DFECA
     Копирование... OK

Ошибок не произошло

 
AccurateRip: сводка
 
Трек  1  нет в базе данных
Трек  2  нет в базе данных
Трек  3  нет в базе данных
Трек  4  нет в базе данных
Трек  5  нет в базе данных
Трек  6  нет в базе данных
Трек  7  нет в базе данных
Трек  8  нет в базе данных
Трек  9  нет в базе данных
Трек 10  нет в базе данных
Трек 11  нет в базе данных
Трек 12  нет в базе данных
 
Ни одного трека нет в базе AccurateRip

Конец отчёта

Страница 1 из 1

new_topic  reply_topic

Текущее время: 23-Сен 01:33
Часовой пояс: GMT + 4

m Сделано с любовью PR-CY.ru Каталог webplus.info