Вход на сайт

Имя:
Пароль:

· Забыли пароль?
logo
Портал Форум
Регистрация Вход


new_topic  reply_topic

  (Pop) Ice Cream - Teen mis tahan - 2004, FLAC (image + .cue) lossless

pic
Год выпуска: 2004
Страна: Эстония
Производитель: Эстония
Жанр: Pop
Номер #: TOP CD 1132 (TopTen)
Продолжительность: 0:46:00

Тип издания: альбом
Аудио кодек: FLAC
Тип рипа: (image + .cue)
Битрейт аудио: lossless

Треклист:

  1. www.icecream.ee
  2. Tegid tünga
  3. Teen, mis tahan
  4. Jälle otsas papp
  5. Get over it
  6. Mõttetu päev
  7. P.A.R.T.Y.
  8. Oled täitsa cool
  9. Süstal ja liim
  10. I lost myself
  11. Teen, mis tahan (mix)
  12. Helista mulle mobiilile (dance mix)
  13. Helista mulle mobiilile (karaoke)

Код:

Exact Audio Copy V0.99 prebeta 5 from 4. May 2009

Отчёт EAC об извлечении, выполненном 10. ноября 2013, 23:02

Ice Gream / Teen mis tahan

Дисковод: TSSTcorpCDDVDW SH-S223B   Adapter: 4  ID: 2

Режим чтения                 : Достоверность
Использование точного потока : Да
Отключение кэша аудио        : Да
Использование указателей C2  : Нет

Коррекция смещения при чтении                     : 6
Способность читать области Lead-in и Lead-out     : Нет
Заполнение пропущенных сэмплов тишиной            : Да
Удаление блоков с тишиной в начале и конце        : Нет
При вычислениях CRC использовались нулевые сэмплы : Да
Интерфейс                                         : Встроенный Win32-интерфейс для Win NT/2000

Выходной формат : Внутренние WAV-операции
Формат сэмплов  : 44.100 Гц; 16 бит; стерео

TOC извлечённого CD

     Трек |   Старт  | Длительность | Начальный сектор | Конечный сектор
    ---------------------------------------------------------------------
       1  |  0:00.00 |    3:31.27   |           0      |      15851     
       2  |  3:31.27 |    3:22.15   |       15852      |      31016     
       3  |  6:53.42 |    4:03.32   |       31017      |      49273     
       4  | 10:56.74 |    3:14.55   |       49274      |      63878     
       5  | 14:11.54 |    3:08.58   |       63879      |      78036     
       6  | 17:20.37 |    4:30.25   |       78037      |      98311     
       7  | 21:50.62 |    4:24.27   |       98312      |     118138     
       8  | 26:15.14 |    3:42.73   |      118139      |     134861     
       9  | 29:58.12 |    3:16.07   |      134862      |     149568     
      10  | 33:14.19 |    3:43.51   |      149569      |     166344     
      11  | 36:57.70 |    3:05.57   |      166345      |     180276     
      12  | 40:03.52 |    2:58.27   |      180277      |     193653     
      13  | 43:02.04 |    2:58.15   |      193654      |     207018     

Характеристики диапазона извлечения и сообщения об ошибках

Выбранный диапазон

     Имя файла M:\Эстонская музыка\Ice Cream (lossless)\Ice Gream - Teen mis tahan (2004)\Ice Gream - Teen mis tahan.wav

     Пиковый уровень 97.7 %
     Качество диапазона 100.0 %
     CRC теста AEC49B26
     CRC копии AEC49B26
     Копирование... OK

Ошибок не произошло

 
AccurateRip: сводка
 
Трек  1  нет в базе данных
Трек  2  нет в базе данных
Трек  3  нет в базе данных
Трек  4  нет в базе данных
Трек  5  нет в базе данных
Трек  6  нет в базе данных
Трек  7  нет в базе данных
Трек  8  нет в базе данных
Трек  9  нет в базе данных
Трек 10  нет в базе данных
Трек 11  нет в базе данных
Трек 12  нет в базе данных
Трек 13  нет в базе данных
 
Ни одного трека нет в базе AccurateRip

Конец отчёта

Страница 1 из 1

new_topic  reply_topic

Текущее время: 23-Сен 00:01
Часовой пояс: GMT + 4

m Сделано с любовью PR-CY.ru Каталог webplus.info