Вход на сайт

Имя:
Пароль:

· Забыли пароль?
logo
Портал Форум
Регистрация Вход


new_topic  reply_topic

  (Pop) Mari-Liis - Minu Esimene Plaat - 1997, FLAC (image + .cue) lossless

pic
Год выпуска: 1997
Страна: Эстония
Производитель: Эстония
Жанр: Pop
Номер #: нет (Gunnar Loho Music Management)
Продолжительность: 0:47:58

Тип издания: сингл
Аудио кодек: FLAC
Тип рипа: (image + .cue)
Битрейт аудио: lossless

Треклист:

  1. Mis tegema nüüd pean
  2. Meie muinasjutt
  3. Roosid peeglis
  4. Veel kord tulen
  5. Laulus julgen öelda
  6. Varjatud soovid
  7. Teine dimensioon
  8. Siia jääd
  9. Saatus
  10. Suve saladus
  11. Mis tegema nüüd pean (Caater remix)
  12. Veel kord tulen



Код:

Exact Audio Copy V0.99 prebeta 5 from 4. May 2009

Отчёт EAC об извлечении, выполненном 5. декабря 2013, 13:12

Mari-Liis / Minu Esimene Plaat

Дисковод: SlimtypeDVD A  DS8A3S   Adapter: 1  ID: 0

Режим чтения                 : Достоверность
Использование точного потока : Да
Отключение кэша аудио        : Да
Использование указателей C2  : Нет

Коррекция смещения при чтении                     : 6
Способность читать области Lead-in и Lead-out     : Нет
Заполнение пропущенных сэмплов тишиной            : Да
Удаление блоков с тишиной в начале и конце        : Нет
При вычислениях CRC использовались нулевые сэмплы : Да
Интерфейс                                         : Встроенный Win32-интерфейс для Win NT/2000

Выходной формат : Внутренние WAV-операции
Формат сэмплов  : 44.100 Гц; 16 бит; стерео

TOC извлечённого CD

     Трек |   Старт  | Длительность | Начальный сектор | Конечный сектор
    ---------------------------------------------------------------------
       1  |  0:00.00 |    3:17.20   |           0      |      14794     
       2  |  3:17.20 |    4:07.05   |       14795      |      33324     
       3  |  7:24.25 |    4:42.62   |       33325      |      54536     
       4  | 12:07.12 |    4:12.65   |       54537      |      73501     
       5  | 16:20.02 |    3:33.11   |       73502      |      89487     
       6  | 19:53.13 |    4:42.26   |       89488      |     110663     
       7  | 24:35.39 |    3:31.17   |      110664      |     126505     
       8  | 28:06.56 |    3:23.16   |      126506      |     141746     
       9  | 31:29.72 |    4:26.58   |      141747      |     161754     
      10  | 35:56.55 |    4:17.70   |      161755      |     181099     
      11  | 40:14.50 |    3:32.14   |      181100      |     197013     
      12  | 43:46.64 |    4:12.07   |      197014      |     215920     

Характеристики диапазона извлечения и сообщения об ошибках

Выбранный диапазон

     Имя файла C:\Eesti muusika\Mari-Liis - Minu Esimene Plaat.wav

     Пиковый уровень 96.3 %
     Качество диапазона 100.0 %
     CRC теста 3410C551
     CRC копии 3410C551
     Копирование... OK

Ошибок не произошло

 
AccurateRip: сводка
 
Трек  1  нет в базе данных
Трек  2  нет в базе данных
Трек  3  нет в базе данных
Трек  4  нет в базе данных
Трек  5  нет в базе данных
Трек  6  нет в базе данных
Трек  7  нет в базе данных
Трек  8  нет в базе данных
Трек  9  нет в базе данных
Трек 10  нет в базе данных
Трек 11  нет в базе данных
Трек 12  нет в базе данных
 
Ни одного трека нет в базе AccurateRip

Конец отчёта

Страница 1 из 1

new_topic  reply_topic

Текущее время: 23-Сен 01:24
Часовой пояс: GMT + 4

m Сделано с любовью PR-CY.ru Каталог webplus.info