Вход на сайт

Имя:
Пароль:

· Забыли пароль?
logo
Портал Форум
Регистрация Вход


new_topic  reply_topic

  (Pop) Mono Fans - Aeg Nautida - 1997, FLAC (image + .cue) lossless

pic
Год выпуска: 1997
Страна: Эстония
Производитель: Эстония
Жанр: Pop
Номер #: BOOMCD 001 (BooM Productions)
Продолжительность: 0:47:06

Тип издания: сингл
Аудио кодек: FLAC
Тип рипа: (image + .cue)
Битрейт аудио: lossless

Треклист:

  1. Tundes sind
  2. Unes ja ilmsi
  3. Aeg nautida
  4. Leian tee
  5. Nii las jääb
  6. Sa võid
  7. Tähistaevas
  8. Kaugele kaugele
  9. Jahtuda maha
  10. Juliette
  11. Teadmata veel



Код:

Exact Audio Copy V0.99 prebeta 5 from 4. May 2009

Отчёт EAC об извлечении, выполненном 5. декабря 2013, 12:59

Mono Fans / Aeg Nautida

Дисковод: SlimtypeDVD A  DS8A3S   Adapter: 1  ID: 0

Режим чтения                 : Достоверность
Использование точного потока : Да
Отключение кэша аудио        : Да
Использование указателей C2  : Нет

Коррекция смещения при чтении                     : 6
Способность читать области Lead-in и Lead-out     : Нет
Заполнение пропущенных сэмплов тишиной            : Да
Удаление блоков с тишиной в начале и конце        : Нет
При вычислениях CRC использовались нулевые сэмплы : Да
Интерфейс                                         : Встроенный Win32-интерфейс для Win NT/2000

Выходной формат : Внутренние WAV-операции
Формат сэмплов  : 44.100 Гц; 16 бит; стерео

TOC извлечённого CD

     Трек |   Старт  | Длительность | Начальный сектор | Конечный сектор
    ---------------------------------------------------------------------
       1  |  0:00.00 |    4:56.65   |           0      |      22264     
       2  |  4:56.65 |    4:00.65   |       22265      |      40329     
       3  |  8:57.55 |    5:15.25   |       40330      |      63979     
       4  | 14:13.05 |    4:01.00   |       63980      |      82054     
       5  | 18:14.05 |    5:16.05   |       82055      |     105759     
       6  | 23:30.10 |    3:21.62   |      105760      |     120896     
       7  | 26:51.72 |    3:54.23   |      120897      |     138469     
       8  | 30:46.20 |    4:21.05   |      138470      |     158049     
       9  | 35:07.25 |    3:20.55   |      158050      |     173104     
      10  | 38:28.05 |    4:23.70   |      173105      |     192899     
      11  | 42:52.00 |    4:14.05   |      192900      |     211954     

Характеристики диапазона извлечения и сообщения об ошибках

Выбранный диапазон

     Имя файла C:\Eesti muusika\Mono Fans - Aeg Nautida.wav

     Пиковый уровень 97.7 %
     Качество диапазона 100.0 %
     CRC теста B419A69A
     CRC копии B419A69A
     Копирование... OK

Ошибок не произошло

 
AccurateRip: сводка
 
Трек  1  нет в базе данных
Трек  2  нет в базе данных
Трек  3  нет в базе данных
Трек  4  нет в базе данных
Трек  5  нет в базе данных
Трек  6  нет в базе данных
Трек  7  нет в базе данных
Трек  8  нет в базе данных
Трек  9  нет в базе данных
Трек 10  нет в базе данных
Трек 11  нет в базе данных
 
Ни одного трека нет в базе AccurateRip

Конец отчёта

Страница 1 из 1

new_topic  reply_topic

Текущее время: 22-Сен 23:42
Часовой пояс: GMT + 4

m Сделано с любовью PR-CY.ru Каталог webplus.info