Вход на сайт

Имя:
Пароль:

· Забыли пароль?
logo
Портал Форум
Регистрация Вход


Статистика раздачи

Размер: 597 MB | Зарегистрирован: 7 лет 9 месяцев | Торрент скачан: 4 раза
new_topic  reply_topic

  (Pop) Jerorr (Errorr) - Заграница 1 - 2003, FLAC (image + .cue) lossless

pic
Год выпуска: 2003 (переиздание 1996 года)
Страна: Германия
Производитель: Германия
Жанр: Pop
Номер #: JE 4031 (Jerorr Music / Zenter Piramid)
Продолжительность: 1:13:49

Тип контента: альбом
Аудио кодек: FLAC
Тип рипа: (image + .cue)
Битрейт аудио: lossless

Треклист:

  1. Интро
  2. Заграница 1
  3. Русские девчонки
  4. Дискотека 1
  5. Прощальные розы
  6. Шайс эгал
  7. Раз, два расцвела
  8. Пустой бульвар
  9. Пусть
  10. Ляли
  11. Землячка
  12. Вот и всё
  13. Пустой бульвар (Remix)
  14. Аусзиедлерский вальс

    Bonus Tracks:
  15. Black Book
  16. Prayer
  17. Opa - Reiter


Доп. информация: Переиздание содержит бонусные треки из альбома "Play" в исполнении Marlin Kalenda и Sascha Pino. Названия отличаются от оригинальных: Black Book (ориг: Black Boots), Prayer (ориг: Midnight), Opa - Reiter (ориг. Hopper Reiter). Подробнее об альбомах Jerorr

Код:

Exact Audio Copy V0.99 prebeta 5 from 4. May 2009

Отчёт EAC об извлечении, выполненном 4. декабря 2013, 2:43

Jerorr / Заграница

Дисковод: TSSTcorpCDDVDW SH-224BB   Adapter: 1  ID: 0

Режим чтения                 : Достоверность
Использование точного потока : Да
Отключение кэша аудио        : Да
Использование указателей C2  : Нет

Коррекция смещения при чтении                     : 6
Способность читать области Lead-in и Lead-out     : Нет
Заполнение пропущенных сэмплов тишиной            : Да
Удаление блоков с тишиной в начале и конце        : Нет
При вычислениях CRC использовались нулевые сэмплы : Да
Интерфейс                                         : Встроенный Win32-интерфейс для Win NT/2000

Выходной формат : Внутренние WAV-операции
Формат сэмплов  : 44.100 Гц; 16 бит; стерео

TOC извлечённого CD

     Трек |   Старт  | Длительность | Начальный сектор | Конечный сектор
    ---------------------------------------------------------------------
       1  |  0:00.00 |    0:15.40   |           0      |       1164     
       2  |  0:15.40 |    4:52.38   |        1165      |      23102     
       3  |  5:08.03 |    3:59.42   |       23103      |      41069     
       4  |  9:07.45 |    4:53.50   |       41070      |      63094     
       5  | 14:01.20 |    5:02.49   |       63095      |      85793     
       6  | 19:03.69 |    3:46.16   |       85794      |     102759     
       7  | 22:50.10 |    4:27.27   |      102760      |     122811     
       8  | 27:17.37 |    5:06.21   |      122812      |     145782     
       9  | 32:23.58 |    5:00.27   |      145783      |     168309     
      10  | 37:24.10 |    4:36.54   |      168310      |     189063     
      11  | 42:00.64 |    5:20.15   |      189064      |     213078     
      12  | 47:21.04 |    4:29.17   |      213079      |     233270     
      13  | 51:50.21 |    4:36.67   |      233271      |     254037     
      14  | 56:27.13 |    5:54.05   |      254038      |     280592     
      15  | 62:21.18 |    3:35.49   |      280593      |     296766     
      16  | 65:56.67 |    3:53.23   |      296767      |     314264     
      17  | 69:50.15 |    3:59.56   |      314265      |     332245     

Характеристики диапазона извлечения и сообщения об ошибках

Выбранный диапазон

     Имя файла K:\Русская Поп-музыка\Jerorr (lossless)\Jerorr - Заграница (2003)\Jerorr - Заграница.wav

     Пиковый уровень 100.0 %
     Качество диапазона 100.0 %
     CRC теста 77824360
     CRC копии 77824360
     Копирование... OK

Ошибок не произошло

 
AccurateRip: сводка
 
Трек  1  нет в базе данных
Трек  2  нет в базе данных
Трек  3  нет в базе данных
Трек  4  нет в базе данных
Трек  5  нет в базе данных
Трек  6  нет в базе данных
Трек  7  нет в базе данных
Трек  8  нет в базе данных
Трек  9  нет в базе данных
Трек 10  нет в базе данных
Трек 11  нет в базе данных
Трек 12  нет в базе данных
Трек 13  нет в базе данных
Трек 14  нет в базе данных
Трек 15  нет в базе данных
Трек 16  нет в базе данных
Трек 17  нет в базе данных
 
Ни одного трека нет в базе AccurateRip

Конец отчёта
Данный материал из частной коллекции пользователя и носит характер объявления. Если вас заинтересовала данная тема, вы можете связаться с автором сообщения и обсудить детали обмена. Для более подробной информации прочтите правила обмена.
dimassamid

(Pop) Jerorr - Заграница 1 2003, FLAC (image + .cue), lossless

думаю можно поглотить
Всем привет. Послушаем.. Давненько дело было.

Страница 1 из 1

new_topic  reply_topic

Текущее время: 23-Сен 00:18
Часовой пояс: GMT + 4

m Сделано с любовью PR-CY.ru Каталог webplus.info