Вход на сайт

Имя:
Пароль:

· Забыли пароль?
logo
Портал Форум
Регистрация Вход


Статистика раздачи

Размер: 496 MB | Зарегистрирован: 7 лет 9 месяцев | Торрент скачан: 0 раз
new_topic  reply_topic

  (Pop) Апрельские сны - Подойди по-ближе (Aprelskie Sny - Come To Me) - 2003, FLAC (image + .cue) lossless

pic
Год выпуска: 2003
Страна: Германия
Производитель: Германия
Жанр: Pop
Номер #: JE 1103 (Jerorr Music)
Продолжительность: 1:07:27

Тип контента: альбом
Аудио кодек: FLAC
Тип рипа: (image + .cue)
Битрейт аудио: lossless

Треклист:

  1. Интро
  2. Подойди по-ближе
  3. www.russen-chat.de
  4. Для тебя
  5. Шалала лала
  6. Далеко-далёко
  7. Я не могу так
  8. Апрель, апрель
  9. Сивка-бурка
  10. Милая
  11. Где ты была
  12. Неизвестный путь
  13. Апрельские сны
  14. У дороги стояла...
  15. Подойди по-ближе (Караоке)
  16. Шалала лала (Караоке)

Код:

Exact Audio Copy V0.99 prebeta 5 from 4. May 2009

Отчёт EAC об извлечении, выполненном 7. декабря 2013, 4:46

Апрельские сны / Подойди по-ближе

Дисковод: TSSTcorpCDDVDW SH-224BB   Adapter: 1  ID: 0

Режим чтения                 : Достоверность
Использование точного потока : Да
Отключение кэша аудио        : Да
Использование указателей C2  : Нет

Коррекция смещения при чтении                     : 6
Способность читать области Lead-in и Lead-out     : Нет
Заполнение пропущенных сэмплов тишиной            : Да
Удаление блоков с тишиной в начале и конце        : Нет
При вычислениях CRC использовались нулевые сэмплы : Да
Интерфейс                                         : Встроенный Win32-интерфейс для Win NT/2000

Выходной формат : Внутренние WAV-операции
Формат сэмплов  : 44.100 Гц; 16 бит; стерео

TOC извлечённого CD

     Трек |   Старт  | Длительность | Начальный сектор | Конечный сектор
    ---------------------------------------------------------------------
       1  |  0:00.00 |    0:15.38   |           0      |       1162     
       2  |  0:15.38 |    3:56.45   |        1163      |      18907     
       3  |  4:12.08 |    5:05.68   |       18908      |      41850     
       4  |  9:18.01 |    4:31.32   |       41851      |      62207     
       5  | 13:49.33 |    4:55.70   |       62208      |      84402     
       6  | 18:45.28 |    4:20.63   |       84403      |     103965     
       7  | 23:06.16 |    4:02.26   |      103966      |     122141     
       8  | 27:08.42 |    4:33.41   |      122142      |     142657     
       9  | 31:42.08 |    4:44.64   |      142658      |     164021     
      10  | 36:26.72 |    4:15.35   |      164022      |     183181     
      11  | 40:42.32 |    4:17.46   |      183182      |     202502     
      12  | 45:00.03 |    4:40.55   |      202503      |     223557     
      13  | 49:40.58 |    4:36.11   |      223558      |     244268     
      14  | 54:16.69 |    4:18.20   |      244269      |     263638     
      15  | 58:35.14 |    3:58.13   |      263639      |     281501     
      16  | 62:33.27 |    4:54.30   |      281502      |     303581     

Характеристики диапазона извлечения и сообщения об ошибках

Выбранный диапазон

     Имя файла K:\Русская Поп-музыка\Апрельские сны (lossless)\Апрельские сны - Подойди по-ближе (2003)\Апрельские сны - Подойди по-ближе.wav

     Пиковый уровень 100.0 %
     Качество диапазона 100.0 %
     CRC теста E1A95D8F
     CRC копии E1A95D8F
     Копирование... OK

Ошибок не произошло

 
AccurateRip: сводка
 
Трек  1  нет в базе данных
Трек  2  нет в базе данных
Трек  3  нет в базе данных
Трек  4  нет в базе данных
Трек  5  нет в базе данных
Трек  6  нет в базе данных
Трек  7  нет в базе данных
Трек  8  нет в базе данных
Трек  9  нет в базе данных
Трек 10  нет в базе данных
Трек 11  нет в базе данных
Трек 12  нет в базе данных
Трек 13  нет в базе данных
Трек 14  нет в базе данных
Трек 15  нет в базе данных
Трек 16  нет в базе данных
 
Ни одного трека нет в базе AccurateRip

Конец отчёта
Данный материал из частной коллекции пользователя и носит характер объявления. Если вас заинтересовала данная тема, вы можете связаться с автором сообщения и обсудить детали обмена. Для более подробной информации прочтите правила обмена.

Страница 1 из 1

new_topic  reply_topic

Текущее время: 23-Сен 01:36
Часовой пояс: GMT + 4

m Сделано с любовью PR-CY.ru Каталог webplus.info