Вход на сайт

Имя:
Пароль:

· Забыли пароль?
logo
Портал Форум
Регистрация Вход


new_topic  reply_topic

  (Pop) Hannah - Without You - 2001, FLAC (image + .cue) lossless

pic
Год выпуска: 2001
Страна: Эстония
Производитель: Финляндия
Жанр: Pop
Номер #: EPC 671172 2 (Epic)
Продолжительность: 0:13:27

Тип издания: сингл
Аудио кодек: FLAC
Тип рипа: (image + .cue)
Битрейт аудио: lossless

Треклист:

  1. Without You (Radio Version)
  2. Without You (Extended Version)
  3. Without You (Paradise Mix)



Код:

Exact Audio Copy V0.99 prebeta 5 from 4. May 2009

Отчёт EAC об извлечении, выполненном 21. декабря 2013, 1:34

Hannah / Without You

Дисковод: TSSTcorpCDDVDW SH-224BB   Adapter: 1  ID: 0

Режим чтения                 : Достоверность
Использование точного потока : Да
Отключение кэша аудио        : Да
Использование указателей C2  : Нет

Коррекция смещения при чтении                     : 6
Способность читать области Lead-in и Lead-out     : Нет
Заполнение пропущенных сэмплов тишиной            : Да
Удаление блоков с тишиной в начале и конце        : Нет
При вычислениях CRC использовались нулевые сэмплы : Да
Интерфейс                                         : Встроенный Win32-интерфейс для Win NT/2000

Выходной формат : Внутренние WAV-операции
Формат сэмплов  : 44.100 Гц; 16 бит; стерео

TOC извлечённого CD

     Трек |   Старт  | Длительность | Начальный сектор | Конечный сектор
    ---------------------------------------------------------------------
       1  |  0:00.00 |    3:18.44   |           0      |      14893     
       2  |  3:18.44 |    6:19.70   |       14894      |      43388     
       3  |  9:38.39 |    3:48.40   |       43389      |      60528     

Характеристики диапазона извлечения и сообщения об ошибках

Выбранный диапазон

     Имя файла M:\Эстонская музыка\Hannah (lossless)\Hannah - Without You (2001)\Hannah - Without You.wav

     Пиковый уровень 99.9 %
     Качество диапазона 100.0 %
     CRC теста 40600FD0
     CRC копии 40600FD0
     Копирование... OK

Ошибок не произошло

 
AccurateRip: сводка
 
Трек  1  точность не определена (достоверность 1)  [AB0F1AEF], AccurateRip вернул [C5AAE6EC]
Трек  2  точность не определена (достоверность 1)  [262FE35D], AccurateRip вернул [851DD352]
Трек  3  точность не определена (достоверность 1)  [1472410C], AccurateRip вернул [99CE144C]
 
Ни один трек не прошёл проверки на точность
В вашей базе может быть иной вариант штамповки диска

Конец отчёта

Страница 1 из 1

new_topic  reply_topic

Текущее время: 23-Сен 00:54
Часовой пояс: GMT + 4

m Сделано с любовью PR-CY.ru Каталог webplus.info