Вход на сайт

Имя:
Пароль:

· Забыли пароль?
logo
Портал Форум
Регистрация Вход


new_topic  reply_topic

  (RnB/Swing, Rhythm & Blues) All-4-One - I Swear - 1994, FLAC (image + .cue) lossless

pic
Год выпуска: 1994
Производитель: Европа
Жанр: RnB/Swing, Rhythm & Blues, Ballad
Номер #: 7567-85660-2 (Atlantic)
Продолжительность: 0:16:46

Тип издания: сингл
Аудио кодек: FLAC
Тип рипа: (image + .cue)
Битрейт аудио: lossless

Треклист:

  1. I Swear (Radio Edit)
  2. I Swear (Radio Mix)
  3. I Swear (Radio Remix)
  4. I Swear (Album Version)

Код:

Exact Audio Copy V0.99 prebeta 5 from 4. May 2009

Отчёт EAC об извлечении, выполненном 22. января 2014, 19:59

All-4-One / I Swear

Дисковод: TSSTcorpCDDVDW SH-224BB   Adapter: 3  ID: 0

Режим чтения                 : Достоверность
Использование точного потока : Да
Отключение кэша аудио        : Да
Использование указателей C2  : Нет

Коррекция смещения при чтении                     : 6
Способность читать области Lead-in и Lead-out     : Нет
Заполнение пропущенных сэмплов тишиной            : Да
Удаление блоков с тишиной в начале и конце        : Нет
При вычислениях CRC использовались нулевые сэмплы : Да
Интерфейс                                         : Встроенный Win32-интерфейс для Win NT/2000

Выходной формат : Внутренние WAV-операции
Формат сэмплов  : 44.100 Гц; 16 бит; стерео

TOC извлечённого CD

     Трек |   Старт  | Длительность | Начальный сектор | Конечный сектор
    ---------------------------------------------------------------------
       1  |  0:00.00 |    3:45.50   |           0      |      16924     
       2  |  3:45.50 |    4:21.12   |       16925      |      36511     
       3  |  8:06.62 |    4:21.03   |       36512      |      56089     
       4  | 12:27.65 |    4:19.07   |       56090      |      75521     

Характеристики диапазона извлечения и сообщения об ошибках

Выбранный диапазон

     Имя файла K:\Электронная\All-4-One (lossless)\All-4-One - I Swear (1994)\All-4-One - I Swear.wav

     Пиковый уровень 100.0 %
     Качество диапазона 100.0 %
     CRC теста 9E3BD535
     CRC копии 9E3BD535
     Копирование... OK

Ошибок не произошло

 
AccurateRip: сводка
 
Трек  1  точное извлечение (доверие 39)  [F592068D]
Трек  2  точное извлечение (доверие 40)  [05CA9089]
Трек  3  точное извлечение (доверие 38)  [3208734F]
Трек  4  точное извлечение (доверие 34)  [BFC6865A]
 
Все треки извлечены точно

Конец отчёта

Страница 1 из 1

new_topic  reply_topic

Текущее время: 22-Июн 22:03
Часовой пояс: GMT + 4

m Сделано с любовью PR-CY.ru Каталог webplus.info