Вход на сайт

Имя:
Пароль:

· Забыли пароль?
logo
Портал Форум
Регистрация Вход


new_topic  reply_topic

  (Gangsta, Downtempo) The Rapsody feat. Warren G & Sissel - Prince Igor - 1997, FLAC (image + .cue) lossless

pic
Год выпуска: 1997
Производитель: Германия
Жанр: Gangsta, Downtempo, Modern Classical
Номер #: 574 965-2 (18) (Def Jam Recordings)
Продолжительность: 0:26:24

Тип издания: сингл
Аудио кодек: FLAC
Тип рипа: (image + .cue)
Битрейт аудио: lossless

Треклист:

  1. Prince Igor (Radio Edit)
  2. Prince Igor (Ries Class Jazz Edit)
  3. Prince Igor (Ries 7" Remix)
  4. Prince Igor (Album Version)
  5. Prince Igor (Ries Class Jazz Extended)
  6. Prince Igor (Ries Class Jazz Instrumental)

Код:

Exact Audio Copy V0.99 prebeta 5 from 4. May 2009

Отчёт EAC об извлечении, выполненном 22. января 2014, 21:08

Prince Igor feat. Warren G & Sissel / The Rapsody (Maxi)

Дисковод: TSSTcorpCDDVDW SH-224BB   Adapter: 3  ID: 0

Режим чтения                 : Достоверность
Использование точного потока : Да
Отключение кэша аудио        : Да
Использование указателей C2  : Нет

Коррекция смещения при чтении                     : 6
Способность читать области Lead-in и Lead-out     : Нет
Заполнение пропущенных сэмплов тишиной            : Да
Удаление блоков с тишиной в начале и конце        : Нет
При вычислениях CRC использовались нулевые сэмплы : Да
Интерфейс                                         : Встроенный Win32-интерфейс для Win NT/2000

Выходной формат : Внутренние WAV-операции
Формат сэмплов  : 44.100 Гц; 16 бит; стерео

TOC извлечённого CD

     Трек |   Старт  | Длительность | Начальный сектор | Конечный сектор
    ---------------------------------------------------------------------
       1  |  0:00.00 |    3:52.07   |           0      |      17406     
       2  |  3:52.07 |    4:03.60   |       17407      |      35691     
       3  |  7:55.67 |    3:54.45   |       35692      |      53286     
       4  | 11:50.37 |    4:24.23   |       53287      |      73109     
       5  | 16:14.60 |    6:08.10   |       73110      |     100719     
       6  | 22:22.70 |    4:01.55   |      100720      |     118849     

Характеристики диапазона извлечения и сообщения об ошибках

Выбранный диапазон

     Имя файла M:\Разное\The Rapsody feat. Warren G & Sissel - Prince Igor (1997)\Prince Igor feat. Warren G & Sissel - The Rapsody.wav

     Пиковый уровень 98.0 %
     Качество диапазона 100.0 %
     CRC теста 38F74156
     CRC копии 38F74156
     Копирование... OK

Ошибок не произошло

 
AccurateRip: сводка
 
Трек  1  точное извлечение (доверие 33)  [E58604B4]
Трек  2  точное извлечение (доверие 31)  [FB1D32C0]
Трек  3  точное извлечение (доверие 32)  [E16F9125]
Трек  4  точное извлечение (доверие 33)  [35F4708A]
Трек  5  точное извлечение (доверие 32)  [7663D455]
Трек  6  точное извлечение (доверие 33)  [54EA00DB]
 
Все треки извлечены точно

Конец отчёта

Страница 1 из 1

new_topic  reply_topic

Текущее время: 22-Июн 21:24
Часовой пояс: GMT + 4

m Сделано с любовью PR-CY.ru Каталог webplus.info