Вход на сайт

Имя:
Пароль:

· Забыли пароль?
logo
Портал Форум
Регистрация Вход


new_topic  reply_topic

  (Pop Rock, Downtempo) Die Toten Hosen - Unsterblich - 2000, FLAC (image + .cue) lossless

pic
Год выпуска: 2000
Страна: Германия
Производитель: Германия
Жанр: Pop Rock, Downtempo, Punk
Номер #: JKP 38 (Jochens Kleine Plattenfirma)
Продолжительность: 0:08:52

Тип издания: сингл
Аудио кодек: FLAC
Тип рипа: (image + .cue)
Битрейт аудио: lossless

Треклист:

  1. Unsterblich
  2. Wofür Man Lebt
  3. Psycho

Код:

Exact Audio Copy V0.99 prebeta 5 from 4. May 2009

Отчёт EAC об извлечении, выполненном 13. февраля 2014, 8:58

Die Toten Hosen / Unsterblich

Дисковод: TSSTcorpCDDVDW SH-S223B   Adapter: 4  ID: 2

Режим чтения                 : Достоверность
Использование точного потока : Да
Отключение кэша аудио        : Да
Использование указателей C2  : Нет

Коррекция смещения при чтении                     : 6
Способность читать области Lead-in и Lead-out     : Нет
Заполнение пропущенных сэмплов тишиной            : Да
Удаление блоков с тишиной в начале и конце        : Нет
При вычислениях CRC использовались нулевые сэмплы : Да
Интерфейс                                         : Встроенный Win32-интерфейс для Win NT/2000

Выходной формат : Внутренние WAV-операции
Формат сэмплов  : 44.100 Гц; 16 бит; стерео

TOC извлечённого CD

     Трек |   Старт  | Длительность | Начальный сектор | Конечный сектор
    ---------------------------------------------------------------------
       1  |  0:00.00 |    3:45.55   |           0      |      16929     
       2  |  3:45.55 |    3:22.64   |       16930      |      32143     
       3  |  7:08.44 |    1:43.50   |       32144      |      39918     
       4  | 11:24.19 |   31:03.08   |       51319      |     191051     

Характеристики диапазона извлечения и сообщения об ошибках

Выбранный диапазон

     Имя файла M:\Разное\Die Toten Hosen (lossless)\Die Toten Hosen - Unsterblich (2000)\Die Toten Hosen - Unsterblich.wav

     Пиковый уровень 99.2 %
     Качество диапазона 100.0 %
     CRC теста 0396A0F3
     CRC копии 0396A0F3
     Копирование... OK

Ошибок не произошло

 
AccurateRip: сводка
 
Трек  1  точное извлечение (доверие 4)  [8E4D1030]
Трек  2  точное извлечение (доверие 4)  [56E43019]
Трек  3  точное извлечение (доверие 4)  [223CC714]
 
Все треки извлечены точно

Конец отчёта

Страница 1 из 1

new_topic  reply_topic

Текущее время: 25-Июн 00:30
Часовой пояс: GMT + 4

m Сделано с любовью PR-CY.ru Каталог webplus.info