Вход на сайт

Имя:
Пароль:

· Забыли пароль?
logo
Портал Форум
Регистрация Вход


new_topic  reply_topic

  (Downtempo) Die Fantastischen Vier - Sie Ist Weg - 1995, FLAC (image + .cue) lossless

pic
Год выпуска: 1995
Страна: Германия
Производитель: Германия
Жанр: Downtempo
Номер #: COL 662378 2 (Columbia)
Продолжительность: 0:31:48

Тип издания: сингл
Аудио кодек: FLAC
Тип рипа: (image + .cue)
Битрейт аудио: lossless

Треклист:

  1. Sie Ist Weg (Video-Version)
  2. Sie Ist Weg (Severin-Resonanz-Mix)
  3. Sie Ist Weg (Saafi-Bros.-Mix)
  4. Sie Ist Weg (DJ Friction-Mix)
  5. Sie Ist Weg (F4-RMX - Sie Ist Weggeschossen)
  6. Sie Ist Weg (Pronoia-Mix - Sie Ist Nicht Da)

Код:

Exact Audio Copy V0.99 prebeta 5 from 4. May 2009

Отчёт EAC об извлечении, выполненном 13. февраля 2014, 11:26

Die Fantastischen Vier / Sie Ist Weg

Дисковод: TSSTcorpCDDVDW SH-S223B   Adapter: 4  ID: 2

Режим чтения                 : Достоверность
Использование точного потока : Да
Отключение кэша аудио        : Да
Использование указателей C2  : Нет

Коррекция смещения при чтении                     : 6
Способность читать области Lead-in и Lead-out     : Нет
Заполнение пропущенных сэмплов тишиной            : Да
Удаление блоков с тишиной в начале и конце        : Нет
При вычислениях CRC использовались нулевые сэмплы : Да
Интерфейс                                         : Встроенный Win32-интерфейс для Win NT/2000

Выходной формат : Внутренние WAV-операции
Формат сэмплов  : 44.100 Гц; 16 бит; стерео

TOC извлечённого CD

     Трек |   Старт  | Длительность | Начальный сектор | Конечный сектор
    ---------------------------------------------------------------------
       1  |  0:00.00 |    3:54.25   |           0      |      17574     
       2  |  3:54.25 |    3:57.25   |       17575      |      35374     
       3  |  7:51.50 |    7:11.50   |       35375      |      67749     
       4  | 15:03.25 |    5:07.25   |       67750      |      90799     
       5  | 20:10.50 |    5:38.50   |       90800      |     116199     
       6  | 25:49.25 |    5:58.50   |      116200      |     143099     

Характеристики диапазона извлечения и сообщения об ошибках

Выбранный диапазон

     Имя файла M:\Разное\Die Fantastischen Vier (lossless)\Die Fantastischen Vier - Sie Ist Weg (1995)\Die Fantastischen Vier - Sie Ist Weg.wav

     Пиковый уровень 98.9 %
     Качество диапазона 100.0 %
     CRC теста 973705B1
     CRC копии 973705B1
     Копирование... OK

Ошибок не произошло

 
AccurateRip: сводка
 
Трек  1  точное извлечение (доверие 18)  [A26FDB4C]
Трек  2  точное извлечение (доверие 17)  [20212836]
Трек  3  точное извлечение (доверие 17)  [932DA5B8]
Трек  4  точное извлечение (доверие 17)  [D77ADCB9]
Трек  5  точное извлечение (доверие 17)  [F6E59BCC]
Трек  6  точное извлечение (доверие 17)  [F8E05AEA]
 
Все треки извлечены точно

Конец отчёта

Страница 1 из 1

new_topic  reply_topic

Текущее время: 22-Июн 20:12
Часовой пояс: GMT + 4

m Сделано с любовью PR-CY.ru Каталог webplus.info