Вход на сайт

Имя:
Пароль:

· Забыли пароль?
logo
Портал Форум
Регистрация Вход


new_topic  reply_topic

  (Pop Rock) Torfrock - Beinhart - 1990, FLAC (image + .cue) lossless

pic
Год выпуска: 1990
Страна: Германия
Производитель: Германия
Жанр: Pop Rock
Номер #: 877 901-2 (Polydor)
Продолжительность: 0:11:06

Тип издания: сингл
Аудио кодек: FLAC
Тип рипа: (image + .cue)
Битрейт аудио: lossless

Треклист:

  1. Beinhart
  2. Beinhart (Instrumental)
  3. Beinhart (Single Version)

Код:

Exact Audio Copy V0.99 prebeta 5 from 4. May 2009

Отчёт EAC об извлечении, выполненном 13. февраля 2014, 12:18

Torfrock / Beinhart!

Дисковод: TSSTcorpCDDVDW SH-224BB   Adapter: 3  ID: 0

Режим чтения                 : Достоверность
Использование точного потока : Да
Отключение кэша аудио        : Да
Использование указателей C2  : Нет

Коррекция смещения при чтении                     : 6
Способность читать области Lead-in и Lead-out     : Нет
Заполнение пропущенных сэмплов тишиной            : Да
Удаление блоков с тишиной в начале и конце        : Нет
При вычислениях CRC использовались нулевые сэмплы : Да
Интерфейс                                         : Встроенный Win32-интерфейс для Win NT/2000

Выходной формат : Внутренние WAV-операции
Формат сэмплов  : 44.100 Гц; 16 бит; стерео

TOC извлечённого CD

     Трек |   Старт  | Длительность | Начальный сектор | Конечный сектор
    ---------------------------------------------------------------------
       1  |  0:00.33 |    4:27.60   |          33      |      20117     
       2  |  4:28.18 |    3:20.07   |       20118      |      35124     
       3  |  7:48.25 |    3:18.03   |       35125      |      49977     

Характеристики диапазона извлечения и сообщения об ошибках

Выбранный диапазон

     Имя файла M:\Разное\Torfrock (lossless)\Torfrock - Beinhart! (2000)\Torfrock - Beinhart!.wav

     Пиковый уровень 99.3 %
     Качество диапазона 100.0 %
     CRC теста 6A85FE3F
     CRC копии 6A85FE3F
     Копирование... OK

Ошибок не произошло

 
AccurateRip: сводка
 
Трек  1  точное извлечение (доверие 16)  [BE4CA663]
Трек  2  точное извлечение (доверие 16)  [299542A5]
Трек  3  точное извлечение (доверие 16)  [5FD7A31A]
 
Все треки извлечены точно

Конец отчёта
Что то есть в немецком звучание притягательное! Спасибо большое!

Страница 1 из 1

new_topic  reply_topic

Текущее время: 22-Июн 20:38
Часовой пояс: GMT + 4

m Сделано с любовью PR-CY.ru Каталог webplus.info