Вход на сайт

Имя:
Пароль:

· Забыли пароль?
logo
Портал Форум
Регистрация Вход


new_topic  reply_topic

  (Trance, Drum 'n' Bass) X-Plode - One - 1997, FLAC (image + .cue) lossless

pic
Год выпуска: 1997
Страна: Эстония
Производитель: Эстония
Жанр: Trance, Drum 'n' Bass
Номер #: нет
Продолжительность: 0:54:16

Тип издания: сингл
Аудио кодек: FLAC
Тип рипа: (image + .cue)
Битрейт аудио: lossless

Треклист:

  1. Damn the pain
  2. Alive
  3. Run 2 You (Trance Voyage Remix)
  4. Sweet papa lova'
  5. One time something
  6. Stereo
  7. Ska Train (Groove Connection Remix)
  8. Alive (X-Plode Versus Holmes Remix)
  9. One Time Something (Deep Devil's Dub)
  10. Deeper

Код:

Exact Audio Copy V0.99 prebeta 5 from 4. May 2009

Отчёт EAC об извлечении, выполненном 13. февраля 2014, 16:40

X-Plode / One

Дисковод: TSSTcorpCDDVDW SH-S223B   Adapter: 4  ID: 2

Режим чтения                 : Достоверность
Использование точного потока : Да
Отключение кэша аудио        : Да
Использование указателей C2  : Нет

Коррекция смещения при чтении                     : 6
Способность читать области Lead-in и Lead-out     : Нет
Заполнение пропущенных сэмплов тишиной            : Да
Удаление блоков с тишиной в начале и конце        : Нет
При вычислениях CRC использовались нулевые сэмплы : Да
Интерфейс                                         : Встроенный Win32-интерфейс для Win NT/2000

Выходной формат : Внутренние WAV-операции
Формат сэмплов  : 44.100 Гц; 16 бит; стерео

TOC извлечённого CD

     Трек |   Старт  | Длительность | Начальный сектор | Конечный сектор
    ---------------------------------------------------------------------
       1  |  0:00.00 |    5:28.10   |           0      |      24609     
       2  |  5:28.10 |    6:05.39   |       24610      |      52023     
       3  | 11:33.49 |    5:26.25   |       52024      |      76498     
       4  | 16:59.74 |    4:02.18   |       76499      |      94666     
       5  | 21:02.17 |    5:08.74   |       94667      |     117840     
       6  | 26:11.16 |    4:59.61   |      117841      |     140326     
       7  | 31:11.02 |    6:20.02   |      140327      |     168828     
       8  | 37:31.04 |    6:38.39   |      168829      |     198717     
       9  | 44:09.43 |    5:05.30   |      198718      |     221622     
      10  | 49:14.73 |    5:01.14   |      221623      |     244211     

Характеристики диапазона извлечения и сообщения об ошибках

Выбранный диапазон

     Имя файла M:\Эстонская музыка\X-Plode (lossless)\X-Plode - One (1997)\X-Plode - One.wav

     Пиковый уровень 99.4 %
     Качество диапазона 100.0 %
     CRC теста 9C417B89
     CRC копии 9C417B89
     Копирование... OK

Ошибок не произошло

 
AccurateRip: сводка
 
Трек  1  нет в базе данных
Трек  2  нет в базе данных
Трек  3  нет в базе данных
Трек  4  нет в базе данных
Трек  5  нет в базе данных
Трек  6  нет в базе данных
Трек  7  нет в базе данных
Трек  8  нет в базе данных
Трек  9  нет в базе данных
Трек 10  нет в базе данных
 
Ни одного трека нет в базе AccurateRip

Конец отчёта
Нестандартная интересная коробка у диска:
pic
pic
pic
pic

Страница 1 из 1

new_topic  reply_topic

Текущее время: 23-Сен 00:46
Часовой пояс: GMT + 4

m Сделано с любовью PR-CY.ru Каталог webplus.info