Вход на сайт

Имя:
Пароль:

· Забыли пароль?
logo
Портал Форум
Регистрация Вход


new_topic  reply_topic

  (Drum 'n' Bass) X-Plode - Sweet Papa Lova' - 1997, FLAC (image + .cue) lossless

pic
Год выпуска: 1997
Страна: Эстония
Производитель: Эстония
Жанр: Drum 'n' Bass
Номер #: KMG 097.2 (Kaljuste Music Group)
Продолжительность: 0:19:14

Тип издания: сингл
Аудио кодек: FLAC
Тип рипа: (image + .cue)
Битрейт аудио: lossless

Треклист:

  1. Sweet Papa Lova' (Original Version)
  2. Sweet Papa Lova' (Liquid's Crazy Coconut Dub)
  3. Sweet Papa Lova' (DJ Meri's Extended Dub)
  4. Wild Style



Код:

Exact Audio Copy V0.99 prebeta 5 from 4. May 2009

Отчёт EAC об извлечении, выполненном 13. февраля 2014, 19:16

X-Plode / Sweet Papa Lova

Дисковод: TSSTcorpCDDVDW SH-224BB   Adapter: 3  ID: 0

Режим чтения                 : Достоверность
Использование точного потока : Да
Отключение кэша аудио        : Да
Использование указателей C2  : Нет

Коррекция смещения при чтении                     : 6
Способность читать области Lead-in и Lead-out     : Нет
Заполнение пропущенных сэмплов тишиной            : Да
Удаление блоков с тишиной в начале и конце        : Нет
При вычислениях CRC использовались нулевые сэмплы : Да
Интерфейс                                         : Встроенный Win32-интерфейс для Win NT/2000

Выходной формат : Внутренние WAV-операции
Формат сэмплов  : 44.100 Гц; 16 бит; стерео

TOC извлечённого CD

     Трек |   Старт  | Длительность | Начальный сектор | Конечный сектор
    ---------------------------------------------------------------------
       1  |  0:00.00 |    4:02.07   |           0      |      18156     
       2  |  4:02.07 |    4:18.69   |       18157      |      37575     
       3  |  8:21.01 |    6:28.51   |       37576      |      66726     
       4  | 14:49.52 |    4:24.24   |       66727      |      86550     

Характеристики диапазона извлечения и сообщения об ошибках

Выбранный диапазон

     Имя файла M:\Эстонская музыка\X-Plode (lossless)\X-Plode - Sweet Papa Lova (1997)\X-Plode - Sweet Papa Lova.wav

     Пиковый уровень 99.9 %
     Качество диапазона 100.0 %
     CRC теста 60B2FD0B
     CRC копии 60B2FD0B
     Копирование... OK

Ошибок не произошло

 
AccurateRip: сводка
 
Трек  1  нет в базе данных
Трек  2  нет в базе данных
Трек  3  нет в базе данных
Трек  4  нет в базе данных
 
Ни одного трека нет в базе AccurateRip

Конец отчёта

Страница 1 из 1

new_topic  reply_topic

Текущее время: 23-Сен 01:12
Часовой пояс: GMT + 4

m Сделано с любовью PR-CY.ru Каталог webplus.info