Вход на сайт

Имя:
Пароль:

· Забыли пароль?
logo
Портал Форум
Регистрация Вход


new_topic  reply_topic

  (Ambient, Chillout) Koan - The Way Of One - 2014, FLAC (image + .cue) lossless

pic
Год выпуска: 2014
Производитель: Германия
Жанр: Ambient, Chillout
Номер #: BTRCD049 (Blue Tunes Recordings)
Продолжительность: 1:14:46

Тип контента: альбом
Аудио кодек: FLAC
Тип рипа: (image + .cue)
Битрейт аудио: lossless

Треклист:

  1. Koan - Alone in Canoe (01:34)
  2. Eagle's Tale (08:47)
  3. Tears of Thunder Spirit (Blue mix) (07:51)
  4. Hanblicheya (Blue mix) (08:53)
  5. Fighting With Unchegila (08:30)
  6. Dreamers of Black Hills (Blue mix) (08:01)
  7. Vision of Star Woman (Big Deeper mix) (09:10)
  8. Tribute for Hiawatha (09:56)
  9. Uenuku (Blue Mix) (09:41)
  10. Peta-Owi Hankeshni! (02:08)

Код:

Exact Audio Copy V1.0 beta 3 from 29. August 2011

Отчёт EAC об извлечении, выполненном 28. апреля 2014, 19:03

Koan / The Way Of One

Дисковод: TSSTcorpCDDVDW SH-S223B   Adapter: 4  ID: 2

Режим чтения                 : Достоверность
Использование точного потока : Да
Отключение кэша аудио        : Да
Использование указателей C2  : Нет

Коррекция смещения при чтении                     : 6
Способность читать области Lead-in и Lead-out     : Нет
Заполнение пропущенных сэмплов тишиной            : Да
Удаление блоков с тишиной в начале и конце        : Нет
При вычислениях CRC использовались нулевые сэмплы : Да
Интерфейс                                         : Встроенный Win32-интерфейс для Win NT/2000

Выходной формат : Внутренние WAV-операции
Формат сэмплов  : 44.100 Гц; 16 бит; стерео

TOC извлечённого CD

     Трек |   Старт  | Длительность | Начальный сектор | Конечный сектор
    ---------------------------------------------------------------------
       1  |  0:00.00 |    1:35.34   |           0      |       7158     
       2  |  1:35.34 |    8:49.34   |        7159      |      46867     
       3  | 10:24.68 |    7:52.25   |       46868      |      82292     
       4  | 18:17.18 |    8:54.15   |       82293      |     122357     
       5  | 27:11.33 |    8:32.01   |      122358      |     160758     
       6  | 35:43.34 |    8:02.49   |      160759      |     196957     
       7  | 43:46.08 |    9:12.13   |      196958      |     238370     
       8  | 52:58.21 |    9:58.15   |      238371      |     283235     
       9  | 62:56.36 |    9:42.51   |      283236      |     326936     
      10  | 72:39.12 |    2:06.70   |      326937      |     336456     

Характеристики диапазона извлечения и сообщения об ошибках

Выбранный диапазон

     Имя файла P:\CD-rips\muviteam.com\Koan - The Way Of One.wav

     Пиковый уровень 98.3 %
     Скорость извлечения 5.4 X
     Качество диапазона 100.0 %
     CRC теста 6E8781D0
     CRC копии 6E8781D0
     Копирование... OK

Ошибок не произошло

 
AccurateRip: сводка
 
Трек  1  отсутствует в базе данных
Трек  2  отсутствует в базе данных
Трек  3  отсутствует в базе данных
Трек  4  отсутствует в базе данных
Трек  5  отсутствует в базе данных
Трек  6  отсутствует в базе данных
Трек  7  отсутствует в базе данных
Трек  8  отсутствует в базе данных
Трек  9  отсутствует в базе данных
Трек 10  отсутствует в базе данных
 
Ни одного трека нет в базе AccurateRip

Конец отчёта

==== Контрольная сумма отчёта DBB9EF780AF3A06748EDF15089905C8D3AD80158FB90F9C31493BE9A0F1E9F72 ====
Ознакомимся, что за тема..

Спасибо.

Страница 1 из 1

new_topic  reply_topic

Текущее время: 25-Июн 02:29
Часовой пояс: GMT + 4

m Сделано с любовью PR-CY.ru Каталог webplus.info