Вход на сайт

Имя:
Пароль:

· Забыли пароль?
logo
Портал Форум
Регистрация Вход


new_topic  reply_topic

  (Pop) Ines - Here For Your Love - 2000, FLAC (image + .cue) lossless

pic
Год выпуска: 2000
Страна: Эстония
Производитель: Эстония
Жанр: Pop
Номер #: 2QS CD 003 (2QS Production)
Продолжительность: 0:46:49

Тип издания: альбом
Аудио кодек: FLAC
Тип рипа: (image + .cue)
Битрейт аудио: lossless

Треклист:

  1. Right Here
  2. That's All Because of You
  3. Here For Your Love
  4. You Wanna Play Too Tough
  5. Illusion of Happiness
  6. Once In a Lifetime
  7. One & Only
  8. Do You Even Know
  9. Stronger Than Ever
  10. I'm Not Like You
  11. Say You Love Me
  12. How Can I Say Goodbye

Код:

Exact Audio Copy V0.99 prebeta 5 from 4. May 2009

Отчёт EAC об извлечении, выполненном 16. мая 2014, 20:07

Ines / Here For Your Love

Дисковод: TSSTcorpCDDVDW SH-224BB   Adapter: 3  ID: 0

Режим чтения                 : Достоверность
Использование точного потока : Да
Отключение кэша аудио        : Да
Использование указателей C2  : Нет

Коррекция смещения при чтении                     : 6
Способность читать области Lead-in и Lead-out     : Нет
Заполнение пропущенных сэмплов тишиной            : Да
Удаление блоков с тишиной в начале и конце        : Нет
При вычислениях CRC использовались нулевые сэмплы : Да
Интерфейс                                         : Встроенный Win32-интерфейс для Win NT/2000

Выходной формат : Внутренние WAV-операции
Формат сэмплов  : 44.100 Гц; 16 бит; стерео

TOC извлечённого CD

     Трек |   Старт  | Длительность | Начальный сектор | Конечный сектор
    ---------------------------------------------------------------------
       1  |  0:00.00 |    4:14.29   |           0      |      19078     
       2  |  4:14.29 |    3:39.54   |       19079      |      35557     
       3  |  7:54.08 |    4:10.52   |       35558      |      54359     
       4  | 12:04.60 |    3:57.17   |       54360      |      72151     
       5  | 16:02.02 |    4:08.18   |       72152      |      90769     
       6  | 20:10.20 |    2:55.69   |       90770      |     103963     
       7  | 23:06.14 |    3:42.21   |      103964      |     120634     
       8  | 26:48.35 |    4:15.09   |      120635      |     139768     
       9  | 31:03.44 |    4:17.38   |      139769      |     159081     
      10  | 35:21.07 |    4:56.38   |      159082      |     181319     
      11  | 40:17.45 |    3:14.73   |      181320      |     195942     
      12  | 43:32.43 |    3:16.42   |      195943      |     210684     

Характеристики диапазона извлечения и сообщения об ошибках

Выбранный диапазон

     Имя файла M:\Эстонская музыка\Ines (lossless)\Ines - Here For Your Love (2000)\Ines - Here For Your Love.wav

     Пиковый уровень 99.9 %
     Качество диапазона 100.0 %
     CRC теста D88F39E7
     CRC копии D88F39E7
     Копирование... OK

Ошибок не произошло

 
AccurateRip: сводка
 
Трек  1  точность не определена (достоверность 1)  [13EE44F4], AccurateRip вернул [A3B614FD]
Трек  2  точность не определена (достоверность 1)  [D7F603E4], AccurateRip вернул [BB8872D8]
Трек  3  точность не определена (достоверность 1)  [09BBD176], AccurateRip вернул [CE4EAC0A]
Трек  4  точность не определена (достоверность 1)  [8E774BA0], AccurateRip вернул [C70C3461]
Трек  5  точность не определена (достоверность 1)  [91BD6A77], AccurateRip вернул [ED4A5C2F]
Трек  6  точность не определена (достоверность 1)  [075833BF], AccurateRip вернул [31C06C69]
Трек  7  точность не определена (достоверность 1)  [4C3F90AF], AccurateRip вернул [0D7E2A7D]
Трек  8  точность не определена (достоверность 1)  [59D13C62], AccurateRip вернул [BBAB78BF]
Трек  9  точность не определена (достоверность 1)  [572BBA84], AccurateRip вернул [9648A943]
Трек 10  точность не определена (достоверность 1)  [BF45AE4C], AccurateRip вернул [39CA7947]
Трек 11  точность не определена (достоверность 1)  [F86FA0E8], AccurateRip вернул [CB09B780]
Трек 12  точность не определена (достоверность 1)  [8F19606F], AccurateRip вернул [952D3F92]
 
Ни один трек не прошёл проверки на точность
В вашей базе может быть иной вариант штамповки диска

Конец отчёта
dimassamid
Спасибо огромное за этот замечательный альбом, как я долго ждал его

Alex2GB писал(а):

dimassamid
Спасибо огромное за этот замечательный альбом, как я долго ждал его
- Писоединяюсь.

Страница 1 из 1

new_topic  reply_topic

Текущее время: 22-Сен 23:54
Часовой пояс: GMT + 4

m Сделано с любовью PR-CY.ru Каталог webplus.info