Вход на сайт

Имя:
Пароль:

· Забыли пароль?
logo
Портал Форум
Регистрация Вход


new_topic  reply_topic

  (Pop, Ballad) Marju Länik - Best of - 1 - 2007, FLAC (image + .cue) lossless

pic
Год выпуска: 2007
Страна: Эстония
Производитель: Эстония
Жанр: Pop, Ballad, Pop Rock
Номер #: ML001 (Marju Länik)
Продолжительность: 1:16:05

Тип издания: альбом
Аудио кодек: FLAC
Тип рипа: (image + .cue)
Битрейт аудио: lossless

Треклист:

  1. Ma olen ju naine
  2. Tunnete keel
  3. Karikakar
  4. Illusioon
  5. Kui sul on raske
  6. Aeg ootab
  7. Mäng
  8. Ikka jälle
  9. Sind oodates
  10. Kellel peatub mu pilk
  11. Jää kauaks mu juurde
  12. Päikesemaa
  13. Südame laul
  14. Suvekuninganna
  15. Head uut aastat
  16. Hingepeegel
  17. Armastus ei ole mulle võõras
  18. Naerdes ja naerutades

Код:

Exact Audio Copy V0.99 prebeta 5 from 4. May 2009

Отчёт EAC об извлечении, выполненном 16. мая 2014, 20:37

Marju Lanik / Best Of - 1

Дисковод: TSSTcorpCDDVDW SH-S223B   Adapter: 4  ID: 2

Режим чтения                 : Достоверность
Использование точного потока : Да
Отключение кэша аудио        : Да
Использование указателей C2  : Нет

Коррекция смещения при чтении                     : 6
Способность читать области Lead-in и Lead-out     : Нет
Заполнение пропущенных сэмплов тишиной            : Да
Удаление блоков с тишиной в начале и конце        : Нет
При вычислениях CRC использовались нулевые сэмплы : Да
Интерфейс                                         : Встроенный Win32-интерфейс для Win NT/2000

Выходной формат : Внутренние WAV-операции
Формат сэмплов  : 44.100 Гц; 16 бит; стерео

TOC извлечённого CD

     Трек |   Старт  | Длительность | Начальный сектор | Конечный сектор
    ---------------------------------------------------------------------
       1  |  0:00.00 |    4:09.22   |           0      |      18696     
       2  |  4:09.22 |    3:10.66   |       18697      |      33012     
       3  |  7:20.13 |    4:18.34   |       33013      |      52396     
       4  | 11:38.47 |    3:48.36   |       52397      |      69532     
       5  | 15:27.08 |    4:07.45   |       69533      |      88102     
       6  | 19:34.53 |    5:01.01   |       88103      |     110678     
       7  | 24:35.54 |    2:39.73   |      110679      |     122676     
       8  | 27:15.52 |    5:53.38   |      122677      |     149189     
       9  | 33:09.15 |    4:04.14   |      149190      |     167503     
      10  | 37:13.29 |    2:36.30   |      167504      |     179233     
      11  | 39:49.59 |    4:16.06   |      179234      |     198439     
      12  | 44:05.65 |    3:34.07   |      198440      |     214496     
      13  | 47:39.72 |    5:17.18   |      214497      |     238289     
      14  | 52:57.15 |    3:46.56   |      238290      |     255295     
      15  | 56:43.71 |    4:44.62   |      255296      |     276657     
      16  | 61:28.58 |    3:41.35   |      276658      |     293267     
      17  | 65:10.18 |    5:55.24   |      293268      |     319916     
      18  | 71:05.42 |    4:59.65   |      319917      |     342406     

Характеристики диапазона извлечения и сообщения об ошибках

Выбранный диапазон

     Имя файла M:\Эстонская музыка\Marju Lanik (lossless)\Marju Lanik - Best Of - 1 (2007)\Marju Lanik - Best Of - 1.wav

     Пиковый уровень 97.9 %
     Качество диапазона 100.0 %
     CRC теста C1715036
     CRC копии C1715036
     Копирование... OK

Ошибок не произошло

 
AccurateRip: сводка
 
Трек  1  точность не определена (достоверность 1)  [049A5F13], AccurateRip вернул [B1DE5F83]
Трек  2  точность не определена (достоверность 1)  [79D49C4B], AccurateRip вернул [2297D3EF]
Трек  3  точность не определена (достоверность 1)  [BA0F1774], AccurateRip вернул [62784555]
Трек  4  точность не определена (достоверность 1)  [EF7DD48C], AccurateRip вернул [D37168E0]
Трек  5  точность не определена (достоверность 1)  [E3A063E4], AccurateRip вернул [50BE84C2]
Трек  6  точность не определена (достоверность 1)  [1D4D7D90], AccurateRip вернул [CAD7A9D3]
Трек  7  точность не определена (достоверность 1)  [85FD117B], AccurateRip вернул [8DD89509]
Трек  8  точность не определена (достоверность 1)  [AAB22A0D], AccurateRip вернул [568D44CF]
Трек  9  точность не определена (достоверность 1)  [D31AB3BB], AccurateRip вернул [94AE06FA]
Трек 10  точность не определена (достоверность 1)  [FBCCC097], AccurateRip вернул [65B1D692]
Трек 11  точность не определена (достоверность 1)  [5642C5BC], AccurateRip вернул [7DA9CF7C]
Трек 12  точность не определена (достоверность 1)  [5BB0635F], AccurateRip вернул [05A81AFD]
Трек 13  точность не определена (достоверность 1)  [FAE36740], AccurateRip вернул [EFC53016]
Трек 14  точность не определена (достоверность 1)  [7150DDC6], AccurateRip вернул [F862A160]
Трек 15  точность не определена (достоверность 1)  [091454C8], AccurateRip вернул [65CD57EB]
Трек 16  точность не определена (достоверность 1)  [4040D266], AccurateRip вернул [CFE4581E]
Трек 17  точность не определена (достоверность 1)  [6F2DD2B6], AccurateRip вернул [C794F448]
Трек 18  точность не определена (достоверность 1)  [7F77FA57], AccurateRip вернул [3ED41DEC]
 
Ни один трек не прошёл проверки на точность
В вашей базе может быть иной вариант штамповки диска

Конец отчёта

Страница 1 из 1

new_topic  reply_topic

Текущее время: 23-Сен 00:54
Часовой пояс: GMT + 4

m Сделано с любовью PR-CY.ru Каталог webplus.info