Вход на сайт

Имя:
Пароль:

· Забыли пароль?
logo
Портал Форум
Регистрация Вход


new_topic  reply_topic

  (Pop, Europop) Suntribe - Ei Tunne Mind - 2005, FLAC (image + .cue) lossless

pic
Год выпуска: 2005
Страна: Эстония
Производитель: Эстония
Жанр: Pop, Europop
Номер #: нет (Moonwalk)
Продолжительность: 0:22:55

Тип издания: макси-сингл
Аудио кодек: FLAC
Тип рипа: (image + .cue)
Битрейт аудио: lossless

Треклист:

  1. Suntribe - Ei Tunne Mind (Original Version)
  2. Suntribe - Ei Tunne Mind (Extended Version)
  3. Suntribe - Let's Get Loud (Original Version)
  4. Suntribe - Let's Get Loud (Extended Version)
  5. Moon Taxi feat. Suntribe - Let's Get Loud (Original Version)
  6. Moon Taxi feat. Suntribe - Let's Get Loud (Extended Version)

Код:

Exact Audio Copy V0.99 prebeta 5 from 4. May 2009

Отчёт EAC об извлечении, выполненном 16. мая 2014, 20:13

Suntribe / Ei Tunne Mind (Single)

Дисковод: TSSTcorpCDDVDW SH-S223B   Adapter: 4  ID: 2

Режим чтения                 : Достоверность
Использование точного потока : Да
Отключение кэша аудио        : Да
Использование указателей C2  : Нет

Коррекция смещения при чтении                     : 6
Способность читать области Lead-in и Lead-out     : Нет
Заполнение пропущенных сэмплов тишиной            : Да
Удаление блоков с тишиной в начале и конце        : Нет
При вычислениях CRC использовались нулевые сэмплы : Да
Интерфейс                                         : Встроенный Win32-интерфейс для Win NT/2000

Выходной формат : Внутренние WAV-операции
Формат сэмплов  : 44.100 Гц; 16 бит; стерео

TOC извлечённого CD

     Трек |   Старт  | Длительность | Начальный сектор | Конечный сектор
    ---------------------------------------------------------------------
       1  |  0:00.00 |    3:21.62   |           0      |      15136     
       2  |  3:21.62 |    4:07.53   |       15137      |      33714     
       3  |  7:29.40 |    3:02.21   |       33715      |      47385     
       4  | 10:31.61 |    4:04.50   |       47386      |      65735     
       5  | 14:36.36 |    3:52.56   |       65736      |      83191     
       6  | 18:29.17 |    4:25.58   |       83192      |     103124     

Характеристики диапазона извлечения и сообщения об ошибках

Выбранный диапазон

     Имя файла M:\Эстонская музыка\Suntribe (lossless)\Suntribe - Ei Tunne Mind (2005)\Suntribe - Ei Tunne Mind.wav

     Пиковый уровень 98.3 %
     Качество диапазона 100.0 %
     CRC теста 70C68F54
     CRC копии 70C68F54
     Копирование... OK

Ошибок не произошло

 
AccurateRip: сводка
 
Трек  1  нет в базе данных
Трек  2  нет в базе данных
Трек  3  нет в базе данных
Трек  4  нет в базе данных
Трек  5  нет в базе данных
Трек  6  нет в базе данных
 
Ни одного трека нет в базе AccurateRip

Конец отчёта
dimassamid круто, отличная группа! Теперь полный комплект

Страница 1 из 1

new_topic  reply_topic

Текущее время: 23-Сен 01:44
Часовой пояс: GMT + 4

m Сделано с любовью PR-CY.ru Каталог webplus.info