Вход на сайт

Имя:
Пароль:

· Забыли пароль?
logo
Портал Форум
Регистрация Вход


new_topic  reply_topic

  (Pop) Tantsumuusika parlid 2 (Жемчужины танцевальной музыки 2) 3CD - 2013, FLAC (image + .cue) lossless

pic
Год выпуска: 2013
Страна: Эстония
Производитель: Эстония
Жанр: Pop
Номер #: 4742252003175 (Records 2000)
Продолжительность: 1:10:11 + 1:15:28 + 1:11:05

Тип издания: сборник
Аудио кодек: FLAC
Тип рипа: (image + .cue)
Битрейт аудио: lossless

Треклист:

CD1

  1. Toomas Anni - My Meribelle
  2. Hellad Velled - Maia
  3. Anmatino - Lei-o-le
  4. N-Euro - Tshaka, tshaka
  5. Hovery Covery - Ära jahtu
  6. Erich Krieger - Külm kui jää
  7. Mari-Liis - Mis tegema nüüd pean
  8. Bläck Rokit - Võrratu kõlvatu
  9. Respekt - Miljon ööd
  10. Sunshine Company - Tsirkus
  11. Meribel Müürsepp - Mr. Right
  12. Boris Lehtlaan - Väike maailm
  13. Jüri Homenja - Kodujärve pinnal
  14. Star Sisters - Säde mu silmis
  15. Armin - Tahan olla
  16. Cardinals & Zone - Valge seil
  17. Mati Nuude - Lola (Peter Dholen dance remix)
  18. Push Up - Bum bum bum
  19. Tarmo Pihlap - Alice (Ralf Zuckermann & LL Dance remix)
  20. Paradox - Ära möödu must lähedalt (DJ X remix)


CD2

  1. Karl Madis & Ciizud - Pärlipüüdja (Cacardi Bola mix)
  2. PS Troika - Kolme pääsukese kohvik
  3. Toivo Asmer - Mendocino
  4. Kadi Toom feat. Koit Toome - Laenatud päev
  5. Mait Maltis & Pojad - Ka täna kõik nii kaunis näib
  6. Peeter Kaljuste - Tulen su tuppa ma salaja
  7. Justament - Justament on 45 Megamix
  8. Merle Lilje - Saatus
  9. Üllar Jörberg - Shubidubidu
  10. Super Boys - Chery Lady
  11. Ergo - Miks sa nutad
  12. Kadri Savva - Kui sa armastad mind veel
  13. Parvepoisid - Armastuse rannal
  14. Joel Steinfeldt - Aeg kaob ja kaob
  15. Elumees - Veenus
  16. Condor - Olles mu lähedal
  17. Hannes Pertel - Minu jaoks
  18. Ines Erm - Sina
  19. Gunnar Loho - Näen sind jälle
  20. Shlaagerbänd - Julge laul


CD3

  1. RAM-i Lõbusad Poisid - Pronto Toreadoor
  2. Vello Orumets - Elektrik avenüü
  3. Trobikond - Olen su juures
  4. Estin - Otsidagi ära püüa
  5. Tauri Anni - Vaikuse hääl
  6. Jaan Kirss - Oled teinud mind õnnelikuks
  7. Vlassov & Smeljanski - Snikersid
  8. Viljo Tamm Bänd - Mõtle veel
  9. Niki feat. Gangbang Familya - Shenandoah Vaim
  10. Taniel Vares - Ingli pai
  11. Wismari poisid - Elektrik
  12. Anaconda - Kaugele mind vii
  13. Peeter Kaljuste & Anne Veski - See on hea
  14. Ervin Lillepea - Quando
  15. Ciizud feat. Eve Pärnsalu - Kaunid baleriinid
  16. Talent - Viktoria
  17. Wendy - Puudutuse kaugusel
  18. Marco - Vaikiv tunne
  19. Seelikukütid - Ahastus (DJ X Remix)
  20. Ardo Juhkov - Kuhu nad jäid

Код:

Exact Audio Copy V0.99 prebeta 5 from 4. May 2009

Отчёт EAC об извлечении, выполненном 17. мая 2014, 15:35

Various / Tantsumuusika parlid 2. CD1

Дисковод: TSSTcorpCDDVDW SH-224BB   Adapter: 3  ID: 0

Режим чтения                 : Достоверность
Использование точного потока : Да
Отключение кэша аудио        : Да
Использование указателей C2  : Нет

Коррекция смещения при чтении                     : 6
Способность читать области Lead-in и Lead-out     : Нет
Заполнение пропущенных сэмплов тишиной            : Да
Удаление блоков с тишиной в начале и конце        : Нет
При вычислениях CRC использовались нулевые сэмплы : Да
Интерфейс                                         : Встроенный Win32-интерфейс для Win NT/2000

Выходной формат : Внутренние WAV-операции
Формат сэмплов  : 44.100 Гц; 16 бит; стерео

TOC извлечённого CD

     Трек |   Старт  | Длительность | Начальный сектор | Конечный сектор
    ---------------------------------------------------------------------
       1  |  0:00.00 |    3:17.10   |           0      |      14784     
       2  |  3:17.10 |    3:31.63   |       14785      |      30672     
       3  |  6:48.73 |    3:04.30   |       30673      |      44502     
       4  |  9:53.28 |    3:26.62   |       44503      |      60014     
       5  | 13:20.15 |    4:08.28   |       60015      |      78642     
       6  | 17:28.43 |    3:47.06   |       78643      |      95673     
       7  | 21:15.49 |    3:29.53   |       95674      |     111401     
       8  | 24:45.27 |    3:31.14   |      111402      |     127240     
       9  | 28:16.41 |    4:37.68   |      127241      |     148083     
      10  | 32:54.34 |    3:38.73   |      148084      |     164506     
      11  | 36:33.32 |    2:59.72   |      164507      |     178003     
      12  | 39:33.29 |    2:08.12   |      178004      |     187615     
      13  | 41:41.41 |    3:44.50   |      187616      |     204465     
      14  | 45:26.16 |    2:53.36   |      204466      |     217476     
      15  | 48:19.52 |    3:31.57   |      217477      |     233358     
      16  | 51:51.34 |    3:54.02   |      233359      |     250910     
      17  | 55:45.36 |    4:00.39   |      250911      |     268949     
      18  | 59:46.00 |    3:15.45   |      268950      |     283619     
      19  | 63:01.45 |    3:14.03   |      283620      |     298172     
      20  | 66:15.48 |    3:55.63   |      298173      |     315860     

Характеристики диапазона извлечения и сообщения об ошибках

Выбранный диапазон

     Имя файла M:\Эстонская музыка\Сборники\Tantsumuusika parlid 2 (2013) 3CD\CD1\Tantsumuusika parlid 2. CD1.wav

     Пиковый уровень 100.0 %
     Качество диапазона 100.0 %
     CRC теста 948CC23F
     CRC копии 948CC23F
     Копирование... OK

Ошибок не произошло

 
AccurateRip: сводка
 
Трек  1  нет в базе данных
Трек  2  нет в базе данных
Трек  3  нет в базе данных
Трек  4  нет в базе данных
Трек  5  нет в базе данных
Трек  6  нет в базе данных
Трек  7  нет в базе данных
Трек  8  нет в базе данных
Трек  9  нет в базе данных
Трек 10  нет в базе данных
Трек 11  нет в базе данных
Трек 12  нет в базе данных
Трек 13  нет в базе данных
Трек 14  нет в базе данных
Трек 15  нет в базе данных
Трек 16  нет в базе данных
Трек 17  нет в базе данных
Трек 18  нет в базе данных
Трек 19  нет в базе данных
Трек 20  нет в базе данных
 
Ни одного трека нет в базе AccurateRip

Конец отчёта

Код:

Exact Audio Copy V0.99 prebeta 5 from 4. May 2009

Отчёт EAC об извлечении, выполненном 17. мая 2014, 14:36

Various / Tantsumuusika parlid 2. CD2

Дисковод: TSSTcorpCDDVDW SH-S223B   Adapter: 4  ID: 2

Режим чтения                 : Достоверность
Использование точного потока : Да
Отключение кэша аудио        : Да
Использование указателей C2  : Нет

Коррекция смещения при чтении                     : 6
Способность читать области Lead-in и Lead-out     : Нет
Заполнение пропущенных сэмплов тишиной            : Да
Удаление блоков с тишиной в начале и конце        : Нет
При вычислениях CRC использовались нулевые сэмплы : Да
Интерфейс                                         : Встроенный Win32-интерфейс для Win NT/2000

Выходной формат : Внутренние WAV-операции
Формат сэмплов  : 44.100 Гц; 16 бит; стерео

TOC извлечённого CD

     Трек |   Старт  | Длительность | Начальный сектор | Конечный сектор
    ---------------------------------------------------------------------
       1  |  0:00.00 |    3:27.42   |           0      |      15566     
       2  |  3:27.42 |    3:58.35   |       15567      |      33451     
       3  |  7:26.02 |    3:44.51   |       33452      |      50302     
       4  | 11:10.53 |    3:45.49   |       50303      |      67226     
       5  | 14:56.27 |    3:29.37   |       67227      |      82938     
       6  | 18:25.64 |    3:43.71   |       82939      |      99734     
       7  | 22:09.60 |    5:53.72   |       99735      |     126281     
       8  | 28:03.57 |    4:26.18   |      126282      |     146249     
       9  | 32:30.00 |    3:06.53   |      146250      |     160252     
      10  | 35:36.53 |    3:57.16   |      160253      |     178043     
      11  | 39:33.69 |    3:09.18   |      178044      |     192236     
      12  | 42:43.12 |    3:23.43   |      192237      |     207504     
      13  | 46:06.55 |    3:44.20   |      207505      |     224324     
      14  | 49:51.00 |    4:00.45   |      224325      |     242369     
      15  | 53:51.45 |    2:39.21   |      242370      |     254315     
      16  | 56:30.66 |    4:11.60   |      254316      |     273200     
      17  | 60:42.51 |    3:57.61   |      273201      |     291036     
      18  | 64:40.37 |    3:44.38   |      291037      |     307874     
      19  | 68:25.00 |    3:45.52   |      307875      |     324801     
      20  | 72:10.52 |    3:17.49   |      324802      |     339625     

Характеристики диапазона извлечения и сообщения об ошибках

Выбранный диапазон

     Имя файла M:\Эстонская музыка\Сборники\Tantsumuusika parlid 2 (2013) 3CD\CD2\Tantsumuusika parlid 2. CD2.wav

     Пиковый уровень 99.9 %
     Качество диапазона 99.9 %
     CRC теста 044E85B9
     CRC копии 044E85B9
     Копирование... OK

Ошибок не произошло

 
AccurateRip: сводка
 
Трек  1  нет в базе данных
Трек  2  нет в базе данных
Трек  3  нет в базе данных
Трек  4  нет в базе данных
Трек  5  нет в базе данных
Трек  6  нет в базе данных
Трек  7  нет в базе данных
Трек  8  нет в базе данных
Трек  9  нет в базе данных
Трек 10  нет в базе данных
Трек 11  нет в базе данных
Трек 12  нет в базе данных
Трек 13  нет в базе данных
Трек 14  нет в базе данных
Трек 15  нет в базе данных
Трек 16  нет в базе данных
Трек 17  нет в базе данных
Трек 18  нет в базе данных
Трек 19  нет в базе данных
Трек 20  нет в базе данных
 
Ни одного трека нет в базе AccurateRip

Конец отчёта

Код:

Exact Audio Copy V0.99 prebeta 5 from 4. May 2009

Отчёт EAC об извлечении, выполненном 17. мая 2014, 15:35

Various / Tantsumuusika parlid 2. CD3

Дисковод: TSSTcorpCDDVDW SH-S223B   Adapter: 4  ID: 2

Режим чтения                 : Достоверность
Использование точного потока : Да
Отключение кэша аудио        : Да
Использование указателей C2  : Нет

Коррекция смещения при чтении                     : 6
Способность читать области Lead-in и Lead-out     : Нет
Заполнение пропущенных сэмплов тишиной            : Да
Удаление блоков с тишиной в начале и конце        : Нет
При вычислениях CRC использовались нулевые сэмплы : Да
Интерфейс                                         : Встроенный Win32-интерфейс для Win NT/2000

Выходной формат : Внутренние WAV-операции
Формат сэмплов  : 44.100 Гц; 16 бит; стерео

TOC извлечённого CD

     Трек |   Старт  | Длительность | Начальный сектор | Конечный сектор
    ---------------------------------------------------------------------
       1  |  0:00.00 |    3:31.61   |           0      |      15885     
       2  |  3:31.61 |    3:40.31   |       15886      |      32416     
       3  |  7:12.17 |    2:52.31   |       32417      |      45347     
       4  | 10:04.48 |    3:43.02   |       45348      |      62074     
       5  | 13:47.50 |    4:03.41   |       62075      |      80340     
       6  | 17:51.16 |    3:08.50   |       80341      |      94490     
       7  | 20:59.66 |    3:13.11   |       94491      |     108976     
       8  | 24:13.02 |    4:12.00   |      108977      |     127876     
       9  | 28:25.02 |    3:45.59   |      127877      |     144810     
      10  | 32:10.61 |    3:20.38   |      144811      |     159848     
      11  | 35:31.24 |    3:45.20   |      159849      |     176743     
      12  | 39:16.44 |    3:40.74   |      176744      |     193317     
      13  | 42:57.43 |    3:27.11   |      193318      |     208853     
      14  | 46:24.54 |    3:01.26   |      208854      |     222454     
      15  | 49:26.05 |    3:07.22   |      222455      |     236501     
      16  | 52:33.27 |    3:43.03   |      236502      |     253229     
      17  | 56:16.30 |    4:13.51   |      253230      |     272255     
      18  | 60:30.06 |    3:30.04   |      272256      |     288009     
      19  | 64:00.10 |    3:15.03   |      288010      |     302637     
      20  | 67:15.13 |    3:50.14   |      302638      |     319901     

Характеристики диапазона извлечения и сообщения об ошибках

Выбранный диапазон

     Имя файла M:\Эстонская музыка\Сборники\Tantsumuusika parlid 2 (2013) 3CD\CD3\Tantsumuusika parlid 2. CD3.wav

     Пиковый уровень 99.9 %
     Качество диапазона 99.9 %
     CRC теста 670C041B
     CRC копии 670C041B
     Копирование... OK

Ошибок не произошло

 
AccurateRip: сводка
 
Трек  1  нет в базе данных
Трек  2  нет в базе данных
Трек  3  нет в базе данных
Трек  4  нет в базе данных
Трек  5  нет в базе данных
Трек  6  нет в базе данных
Трек  7  нет в базе данных
Трек  8  нет в базе данных
Трек  9  нет в базе данных
Трек 10  нет в базе данных
Трек 11  нет в базе данных
Трек 12  нет в базе данных
Трек 13  нет в базе данных
Трек 14  нет в базе данных
Трек 15  нет в базе данных
Трек 16  нет в базе данных
Трек 17  нет в базе данных
Трек 18  нет в базе данных
Трек 19  нет в базе данных
Трек 20  нет в базе данных
 
Ни одного трека нет в базе AccurateRip

Конец отчёта

Страница 1 из 1

new_topic  reply_topic

Текущее время: 25-Июл 06:14
Часовой пояс: GMT + 4

m Сделано с любовью