Вход на сайт

Имя:
Пароль:

· Забыли пароль?
logo
Портал Форум
Регистрация Вход


new_topic  reply_topic

  (House, Techno) The Housepope - Chapter 12,2 - Verse 1 1991, WAV (image + .cue), lossless

pic
Год выпуска: 1991
Страна: Нидерланды
Производитель: Нидерланды
Жанр: House, Techno
Номер #: STR 2391 CD (Stealth Records)
Продолжительность: 22:58

Тип издания: макси-сингл
Аудио кодек: WAV
Тип рипа: (image + .cue)
Битрейт аудио: lossless

Треклист:

01. The Fatal Sisters
02. The Orphans Home
03. The Machine
04. The Fatal Sisters (Remix) (Live in Locomotion)

Код:

Exact Audio Copy V1.0 beta 3 from 29. August 2011

Отчёт EAC об извлечении, выполненном 7. декабря 2014, 17:48

THE HOUSEPOPE / Chapter 12,2 - Verse 1

Дисковод: TEAC    CD-W58E   Adapter: 0  ID: 1

Режим чтения                 : Достоверность
Использование точного потока : Да
Отключение кэша аудио        : Да
Использование указателей C2  : Нет

Коррекция смещения при чтении                     : 685
Способность читать области Lead-in и Lead-out     : Нет
Заполнение пропущенных сэмплов тишиной            : Да
Удаление блоков с тишиной в начале и конце        : Нет
При вычислениях CRC использовались нулевые сэмплы : Да
Интерфейс                                         : Встроенный Win32-интерфейс для Win NT/2000

Выходной формат : Внутренние WAV-операции
Формат сэмплов  : 44.100 Гц; 16 бит; стерео

TOC извлечённого CD

     Трек |   Старт  | Длительность | Начальный сектор | Конечный сектор
    ---------------------------------------------------------------------
       1  |  0:00.00 |    6:09.00   |           0      |      27674     
       2  |  6:09.00 |    5:46.02   |       27675      |      53626     
       3  | 11:55.02 |    6:07.40   |       53627      |      81191     
       4  | 18:02.42 |    4:56.08   |       81192      |     103399     

Характеристики диапазона извлечения и сообщения об ошибках

Выбранный диапазон

     Имя файла D:\disk D\Music\CD Recordings (Wav format)\Exact Audio Copy\THE HOUSEPOPE (1991) - Chapter 12,2 - Verse 1\THE HOUSEPOPE - Chapter 12,2 - Verse 1.wav

     Пиковый уровень 82.8 %
     Скорость извлечения 3.4 X
     Качество диапазона 100.0 %
     CRC теста F8EBC99B
     CRC копии F8EBC99B
     Копирование... OK

Ошибок не произошло

Конец отчёта

==== Контрольная сумма отчёта D18B5A3041122442496C1127F6227222E92DB311A552C054707868A458A876CE ====

Страница 1 из 1

new_topic  reply_topic

Текущее время: 16-Июл 07:59
Часовой пояс: GMT + 4

m Сделано с любовью