Вход на сайт

Имя:
Пароль:

· Забыли пароль?
logo
Портал Форум
Регистрация Вход


Статистика раздачи

Размер: 355 MB | Зарегистрирован: 13 лет | Торрент скачан: 1 раз
new_topic  reply_topic

  (Pop) Вася Пряников - Ни пуха, ни пера! 2002, APE (image + .cue)

pic
Страна: Германия
Год выпуска: 2002
Производитель: Германия
Жанр: Pop
Номер #: [ "PMP" MAINZ ]
Продолжительность: ~ 48 минут

Тип контента : альбом
Аудио кодек: APE
Тип рипа: (image + .cue)
Битрейт аудио: lossless


Треклист:

01. Гуляй, пока гуляется
02. Блондинки и Брюнеточки
03. Не может быть
04. Не учи ученого
05. Не торопись
06. Тая
07. Задолбала
08. Дегустатор пива
09. Охота
10. Заграница
11. Дуба дал (RMX 2002)
12. Зима в Баварии (RMX 2002)

Код:

Exact Audio Copy V0.99 prebeta 1 from 25. May 2007

Отчёт EAC об извлечении, выполненном 31. марта 2008, 21:24

В.Пряников / Ни пуха, ни пера!

Дисковод: PLEXTOR DVDR   PX-800A   Adapter: 0  ID: 0

Режим чтения                 : Достоверность
Использование точного потока : Да
Отключение кэша аудио        : Да
Использование указателей C2  : Нет

Коррекция смещения при чтении                 : 48
Способность читать области Lead-in и Lead-out : Нет
Заполнение пропущенных сэмплов тишиной        : Да
Удаление блоков с тишиной в начале и конце    : Нет
Интерфейс                                     : Встроенный Win32-интерфейс для Win NT/2000

Выходной формат : Внутренние WAV-операции
Формат сэмплов  : 44.100 Гц; 16 бит; стерео

TOC извлечённого CD

     Трек |   Старт  | Длительность | Начальный сектор | Конечный сектор
    ---------------------------------------------------------------------
       1  |  0:00.00 |    3:32.29   |           0      |      15928
       2  |  3:32.29 |    4:05.55   |       15929      |      34358
       3  |  7:38.09 |    4:02.30   |       34359      |      52538
       4  | 11:40.39 |    4:00.58   |       52539      |      70596
       5  | 15:41.22 |    3:17.05   |       70597      |      85376
       6  | 18:58.27 |    3:59.63   |       85377      |     103364
       7  | 22:58.15 |    3:59.22   |      103365      |     121311
       8  | 26:57.37 |    3:43.64   |      121312      |     138100
       9  | 30:41.26 |    4:07.25   |      138101      |     156650
      10  | 34:48.51 |    3:31.70   |      156651      |     172545
      11  | 38:20.46 |    4:24.04   |      172546      |     192349
      12  | 42:44.50 |    4:50.58   |      192350      |     214157

Характеристики диапазона извлечения и сообщения об ошибках

Выбранный диапазон

     Имя файла C:\Temp\образы\В.Пряников - Ни пуха, ни пера!.wav

     Пиковый уровень 99.4 %
     Качество диапазона 99.9 %
     CRC копии A4B820E8
     Копирование... OK

Ошибок не произошло

Конец отчёта
Данный материал из частной коллекции пользователя и носит характер объявления. Если вас заинтересовала данная тема, вы можете связаться с автором сообщения и обсудить детали обмена. Для более подробной информации прочтите правила обмена.
Сканы всех обложек выложу позже, а также остальные альбомы
спасибо

Страница 1 из 1

new_topic  reply_topic

Текущее время: 23-Окт 16:01
Часовой пояс: GMT + 4

m Сделано с любовью PR-CY.ru Каталог webplus.info