Вход на сайт

Имя:
Пароль:

· Забыли пароль?
logo
Портал Форум
Регистрация Вход


new_topic  reply_topic

  (EuroDisco) London Boys - The Remix Collection - 1990, FLAC (image + .cue), lossless

London Boys - The Remix Collection


pic
Жанр: EuroDisco
Год выпуска: 1990
Формат: FLAC (image + .cue)
Битрейт аудио: lossless
Трэклист:


1. I'm Gonna Give My Heart'86 (Maxi Version)
2. Harlem Desire'87 (Maxi Version)
3. Put A Meaning In My Life'87 (Single Version)
4. Dance,Dance,Dance'87 (Maxi Version)
5. Requiem'88 (Continental Mix)
6. Requiem'88 (Special UK-Mix)
7. Harlem Desire'89 (Extended Mix)
8. Talk!Talk!Talk!'89 (Single Version)
9. London Nights'89 (Maxi Version)
10. London Days'89 (The Instrumental)
11. Chapel Of Love'90 (Honeymoon Mix)
Дополнительная информация: Впервые релиз этого диска я выкладывал на торрентсру ,который и по сей день там раздается в том же виде без моего участия, когда еще не знал как пользоваться EAC,естественно настроек программы никаких не производил,.Если в сети гуляет этот релиз в Lossless,будьте уверены что это именно с той раздачи
Этот рип 100% точная копия с настроенного копировальщика.
pic
Exact Audio Copy V0.99 prebeta 4 from 23. January 2008

Отчёт EAC об извлечении, выполненном 20. сентября 2008, 20:46

London Boys / The Remix Collection

Дисковод: ASUS DRW-1814BL Adapter: 3 ID: 0

Режим чтения : Достоверность
Использование точного потока : Да
Отключение кэша аудио : Да
Использование указателей C2 : Нет

Коррекция смещения при чтении : 6
Способность читать области Lead-in и Lead-out : Нет
Заполнение пропущенных сэмплов тишиной : Да
Удаление блоков с тишиной в начале и конце : Нет
При вычислениях CRC использовались нулевые сэмплы : Нет
Интерфейс : Встроенный Win32-интерфейс для Win NT/2000

Выходной формат : Внутренние WAV-операции
Формат сэмплов : 44.100 Гц; 16 бит; стерео

TOC извлечённого CD

Трек | Старт | Длительность | Начальный сектор | Конечный сектор
---------------------------------------------------------------------
1 | 0:00.00 | 7:53.02 | 0 | 35476
2 | 7:53.02 | 7:58.58 | 35477 | 71384
3 | 15:51.60 | 3:30.44 | 71385 | 87178
4 | 19:22.29 | 7:40.38 | 87179 | 121716
5 | 27:02.67 | 8:25.43 | 121717 | 159634
6 | 35:28.35 | 7:46.04 | 159635 | 194588
7 | 43:14.39 | 7:59.41 | 194589 | 230554
8 | 51:14.05 | 3:14.39 | 230555 | 245143
9 | 54:28.44 | 8:01.66 | 245144 | 281284
10 | 62:30.35 | 3:47.10 | 281285 | 298319
11 | 66:17.45 | 7:27.71 | 298320 | 331915

Характеристики диапазона извлечения и сообщения об ошибках

Выбранный диапазон

Имя файла C:\Documents and Settings\Игорь\Рабочий стол\L.B\London Boys - The Remix Collection.wav

Пиковый уровень 100.0 %
Качество диапазона 100.0 %
CRC теста BDE51B81
CRC копии BDE51B81
Копирование... OK

Ошибок не произошло

AccurateRip: сводка

Трек 1 нет в базе данных
Трек 2 нет в базе данных
Трек 3 нет в базе данных
Трек 4 нет в базе данных
Трек 5 нет в базе данных
Трек 6 нет в базе данных
Трек 7 нет в базе данных
Трек 8 нет в базе данных
Трек 9 нет в базе данных
Трек 10 нет в базе данных
Трек 11 нет в базе данных

Ни одного трека нет в базе AccurateRip

Ошибок не произошло

Конец отчёта
pic[/align]
Zakler давай сида в студию! Ты просто супер!
приехали =)

direx писал(а):

приехали =)
куды? координаты остановки не подскажешь плиз?
Образ у меня есть, могу раздать.

Страница 1 из 1

new_topic  reply_topic

Текущее время: 22-Июн 20:25
Часовой пояс: GMT + 4

m Сделано с любовью PR-CY.ru Каталог webplus.info