Вход на сайт

Имя:
Пароль:

· Забыли пароль?
logo
Портал Форум
Регистрация Вход


Статистика раздачи

Размер: 1,9 GB | Зарегистрирован: 12 лет | Торрент скачан: 0 раз
new_topic  reply_topic

  (Pop) Валдай - 5 альбомов 2000 - 2005, FLAC (image + .cue)

pic
Валдай - 5 альбомов

Год выпуска: 2000 - 2005
Страна: Германия
Жанр: Pop
Продолжительность: ~ 5 часа


Тип контента: дискография
Аудио кодек: FLAC
Тип рипа: (image + .cue)
Битрейт аудио: lossless


О исполнителе:
D. J. Валдай - обще своими переделками таких западных хитов как:
"Макарена", "Самба де Жанейро", "Бонасера", "Абракадабра", а также ремиксами на песни многих "звезд" Российской эстрады. В 1997г. на фирме "Мега - рекордз", вместе с D. J. Василичем выпустил книга "Хрен по колено", какой без рекламы разошелся как по официальным данным более 150.000 экз.
Рома белоснежный - былой со дуэта "Slava грязный & Roma Белый", в составе которого выпустил два альбома: "Фольксваген" (прайд-рекордз), "Пингвины" (Мега-рекордз). Клип на песню "Фольксваген" транслировался по ТВ паралельно с выходом альбома. Аранжировки обоих альбомов - D. J. Валдай.


Треклист:


pic
Девочка - Тинейджер 2000

01.Девочка -Тинейджер
02.Ты забудь меня
03.Хрустальный ларец
04.Двигай-Двигай
05.Мальчики-мальчишки
06.Я тебя люблю
07.Ты бросила
08.Хулиган
09.Танцы на колесах
10.Ты ушла от другого ко мне
11.Башня
12.Балтика № 3

Код:

Exact Audio Copy V0.99 prebeta 5 from 4. May 2009

Отчёт EAC об извлечении, выполненном 11. июня 2009, 22:26

Валдай / Девочка-Тинейджер

Дисковод: PLEXTOR DVDR   PX-800A   Adapter: 0  ID: 0

Режим чтения                 : Достоверность
Использование точного потока : Да
Отключение кэша аудио        : Да
Использование указателей C2  : Нет

Коррекция смещения при чтении                     : 48
Способность читать области Lead-in и Lead-out     : Нет
Заполнение пропущенных сэмплов тишиной            : Да
Удаление блоков с тишиной в начале и конце        : Нет
При вычислениях CRC использовались нулевые сэмплы : Да
Интерфейс                                         : Встроенный Win32-интерфейс для Win NT/2000

Выходной формат : Внутренние WAV-операции
Формат сэмплов  : 44.100 Гц; 16 бит; стерео

TOC извлечённого CD

     Трек |   Старт  | Длительность | Начальный сектор | Конечный сектор
    ---------------------------------------------------------------------
       1  |  0:00.00 |    3:30.01   |           0      |      15750
       2  |  3:30.01 |    4:06.13   |       15751      |      34213
       3  |  7:36.14 |    3:30.13   |       34214      |      49976
       4  | 11:06.27 |    3:39.72   |       49977      |      66473
       5  | 14:46.24 |    3:30.68   |       66474      |      82291
       6  | 18:17.17 |    4:06.25   |       82292      |     100766
       7  | 22:23.42 |    3:53.18   |      100767      |     118259
       8  | 26:16.60 |    3:39.62   |      118260      |     134746
       9  | 29:56.47 |    3:34.17   |      134747      |     150813
      10  | 33:30.64 |    3:55.45   |      150814      |     168483
      11  | 37:26.34 |    3:32.15   |      168484      |     184398
      12  | 40:58.49 |    3:59.38   |      184399      |     202361

Характеристики диапазона извлечения и сообщения об ошибках

Выбранный диапазон

     Имя файла C:\Temp\Образы\Валдай - Девочка-Тинейджер.wav

     Пиковый уровень 100.0 %
     Качество диапазона 100.0 %
     CRC копии BACC4A0A
     Копирование... OK

Ошибок не произошло

Конец отчёта
pic
Хотеть не вредно 2001

01. Хотеть не вредно ...
02. germany.ru
03. Киска
04. Облака - 1
05. Нелюбимая
06. Девочка - тин... (remix)
07. Милая моя
08. Зина из резины
09. Свадебная
10. Хрустальный лорец (remix)
11. Ангелочек-девочка
12. Облака - 2
13. www [remix]
14. Хотеть не вредно...

Код:

Exact Audio Copy V0.99 prebeta 1 from 25. May 2007

Отчёт EAC об извлечении, выполненном 6. ноября 2008, 20:06

Валдай / Хотеть не вредно...

Дисковод: PLEXTOR DVDR   PX-800A   Adapter: 0  ID: 0

Режим чтения                 : Достоверность
Использование точного потока : Да
Отключение кэша аудио        : Да
Использование указателей C2  : Нет

Коррекция смещения при чтении                 : 48
Способность читать области Lead-in и Lead-out : Нет
Заполнение пропущенных сэмплов тишиной        : Да
Удаление блоков с тишиной в начале и конце    : Нет
Интерфейс                                     : Встроенный Win32-интерфейс для Win NT/2000

Выходной формат : Внутренние WAV-операции
Формат сэмплов  : 44.100 Гц; 16 бит; стерео

TOC извлечённого CD

     Трек |   Старт  | Длительность | Начальный сектор | Конечный сектор
    ---------------------------------------------------------------------
       1  |  0:00.00 |    4:14.11   |           0      |      19060
       2  |  4:14.11 |    4:38.34   |       19061      |      39944
       3  |  8:52.45 |    4:40.27   |       39945      |      60971
       4  | 13:32.72 |    4:10.52   |       60972      |      79773
       5  | 17:43.49 |    4:01.00   |       79774      |      97848
       6  | 21:44.49 |    3:58.38   |       97849      |     115736
       7  | 25:43.12 |    3:58.02   |      115737      |     133588
       8  | 29:41.14 |    3:53.53   |      133589      |     151116
       9  | 33:34.67 |    4:40.17   |      151117      |     172133
      10  | 38:15.09 |    5:10.59   |      172134      |     195442
      11  | 43:25.68 |    4:59.50   |      195443      |     217917
      12  | 48:25.43 |    3:41.39   |      217918      |     234531
      13  | 52:07.07 |    4:33.34   |      234532      |     255040
      14  | 56:40.41 |    4:10.25   |      255041      |     273815

Характеристики диапазона извлечения и сообщения об ошибках

Выбранный диапазон

     Имя файла C:\Temp\Образы\Валдай - Хотеть не вредно....wav

     Пиковый уровень 96.5 %
     Качество диапазона 100.0 %
     CRC копии 738ECB5B
     Копирование... OK

Ошибок не произошло

Конец отчёта
pic
Чай, кофе, потанцуем! 2002

01. Вера мне не верила...
02. Чай, кофе, потанцуем!
03. Перцы
04. Забей
05. Ты его потеряла
06. Не досталась
07. Нелюбимая - 2
08. Полный отстой
09. Киска- ремикс Unix (Германия)
10. Хотелка - ремикс Unix (Германия)
11. www- ремикс Unix (Германия)
12. Чай, кофе... транс микс DJ Africa
13. Вера мне не верила... (karaoke)

Код:

Exact Audio Copy V0.99 prebeta 1 from 25. May 2007

Отчёт EAC об извлечении, выполненном 6. ноября 2008, 20:27

Валдай / Чай, кофе, потанцуем!

Дисковод: PLEXTOR DVDR   PX-800A   Adapter: 0  ID: 0

Режим чтения                 : Достоверность
Использование точного потока : Да
Отключение кэша аудио        : Да
Использование указателей C2  : Нет

Коррекция смещения при чтении                 : 48
Способность читать области Lead-in и Lead-out : Нет
Заполнение пропущенных сэмплов тишиной        : Да
Удаление блоков с тишиной в начале и конце    : Нет
Интерфейс                                     : Встроенный Win32-интерфейс для Win NT/2000

Выходной формат : Внутренние WAV-операции
Формат сэмплов  : 44.100 Гц; 16 бит; стерео

TOC извлечённого CD

     Трек |   Старт  | Длительность | Начальный сектор | Конечный сектор
    ---------------------------------------------------------------------
       1  |  0:00.00 |    3:43.53   |           0      |      16777
       2  |  3:43.53 |    4:04.06   |       16778      |      35083
       3  |  7:47.59 |    4:08.42   |       35084      |      53725
       4  | 11:56.26 |    4:48.70   |       53726      |      75395
       5  | 16:45.21 |    4:36.11   |       75396      |      96106
       6  | 21:21.32 |    4:38.12   |       96107      |     116968
       7  | 25:59.44 |    3:52.67   |      116969      |     134435
       8  | 29:52.36 |    4:52.07   |      134436      |     156342
       9  | 34:44.43 |    5:04.70   |      156343      |     179212
      10  | 39:49.38 |    4:59.62   |      179213      |     201699
      11  | 44:49.25 |    4:44.36   |      201700      |     223035
      12  | 49:33.61 |    5:41.00   |      223036      |     248610
      13  | 55:14.61 |    3:43.72   |      248611      |     265407

Характеристики диапазона извлечения и сообщения об ошибках

Выбранный диапазон

     Имя файла C:\Temp\Образы\Валдай - Чай, кофе, потанцуем!.wav

     Пиковый уровень 96.5 %
     Качество диапазона 100.0 %
     CRC копии F05A6648
     Копирование... OK

Ошибок не произошло

Конец отчёта
pic
Замиксовано! 2002

01.Дикий пляж (DJ Max Rmx)
02.Вера мне не верила... (Из Берлина в Москву DJ Max Rmx)
03.Чай, кофе, потанцуем! (DJ Max Rmx)
04.Забей (House Piratas Rmx)
05.Девочка-тинейджер (Rmx)
06.Хрустальный ларец (Rmx)
07.Хотеть не вредно (DJ Unix Rmx)
08.Www.germany.ru (DJ Unix Rmx)
09.Киска (DJ Unix Rmx)
10.Чай, кофе, потанцуем! (Транс-микс Dj Africa)
11.Облака (DJ Unix House Mix)
12.Дикий пляж (Original Version)
13.Мегамикс

Код:

Exact Audio Copy V0.99 prebeta 4 from 23. January 2008

Отчёт EAC об извлечении, выполненном 9. марта 2009, 15:49

Валдай / Замиксовано !

Дисковод: ASUS    DRW-1814BL   Adapter: 1  ID: 0

Режим чтения                 : Достоверность
Использование точного потока : Да
Отключение кэша аудио        : Да
Использование указателей C2  : Нет

Коррекция смещения при чтении                     : 6
Способность читать области Lead-in и Lead-out     : Нет
Заполнение пропущенных сэмплов тишиной            : Да
Удаление блоков с тишиной в начале и конце        : Нет
При вычислениях CRC использовались нулевые сэмплы : Да
Интерфейс                                         : Встроенный Win32-интерфейс для Win NT/2000

Выходной формат : Внутренние WAV-операции
Формат сэмплов  : 44.100 Гц; 16 бит; стерео

TOC извлечённого CD

     Трек |   Старт  | Длительность | Начальный сектор | Конечный сектор
    ---------------------------------------------------------------------
       1  |  0:00.00 |    3:45.57   |           0      |      16931
       2  |  3:45.57 |    6:04.60   |       16932      |      44291
       3  |  9:50.42 |    4:27.04   |       44292      |      64320
       4  | 14:17.46 |    5:13.48   |       64321      |      87843
       5  | 19:31.19 |    3:58.05   |       87844      |     105698
       6  | 23:29.24 |    5:10.43   |      105699      |     128991
       7  | 28:39.67 |    5:01.20   |      128992      |     151586
       8  | 33:41.12 |    4:33.19   |      151587      |     172080
       9  | 38:14.31 |    5:05.71   |      172081      |     195026
      10  | 43:20.27 |    5:42.60   |      195027      |     220736
      11  | 49:03.12 |    3:51.15   |      220737      |     238076
      12  | 52:54.27 |    4:01.08   |      238077      |     256159
      13  | 56:55.35 |   10:11.18   |      256160      |     302002

Характеристики диапазона извлечения и сообщения об ошибках

Выбранный диапазон

     Имя файла E:\НА-А-А-АШЕ!!!!!!!\Валдай\2002.Замиксовано!\Валдай - Замиксовано.wav

     Пиковый уровень 100.0 %
     Качество диапазона 100.0 %
     CRC теста D6B70E2B
     CRC копии D6B70E2B
     Копирование... OK

Ошибок не произошло

AccurateRip: сводка

Трек  1  нет в базе данных
Трек  2  нет в базе данных
Трек  3  нет в базе данных
Трек  4  нет в базе данных
Трек  5  нет в базе данных
Трек  6  нет в базе данных
Трек  7  нет в базе данных
Трек  8  нет в базе данных
Трек  9  нет в базе данных
Трек 10  нет в базе данных
Трек 11  нет в базе данных
Трек 12  нет в базе данных
Трек 13  нет в базе данных

Ни одного трека нет в базе AccurateRip

Конец отчёта
pic
Мало не покажется 2005

01. Мало не покажется
02. Девчоки все шушукают
03. Вляпатся в любовь
04. 7 пятниц
05. Мы в топе!
06. Принц
07. Ты станешь мамой
08. Вера мне не верила (rmx)
09. Плохой танцор
10. Кино,вино и домино
11. Ахай, не ахай!
12. Чай, кофе, потанцуем (2004 version)
13. Ты станешь мамой (rmx)
14. Я тебя люблю (2004 version)

Код:

Exact Audio Copy V0.99 prebeta 1 from 25. May 2007

Отчёт EAC об извлечении, выполненном 6. ноября 2008, 21:14

Валдай / Мало - Не - покаЖется!

Дисковод: PLEXTOR DVDR   PX-800A   Adapter: 0  ID: 0

Режим чтения                 : Достоверность
Использование точного потока : Да
Отключение кэша аудио        : Да
Использование указателей C2  : Нет

Коррекция смещения при чтении                 : 48
Способность читать области Lead-in и Lead-out : Нет
Заполнение пропущенных сэмплов тишиной        : Да
Удаление блоков с тишиной в начале и конце    : Нет
Интерфейс                                     : Встроенный Win32-интерфейс для Win NT/2000

Выходной формат : Внутренние WAV-операции
Формат сэмплов  : 44.100 Гц; 16 бит; стерео

TOC извлечённого CD

     Трек |   Старт  | Длительность | Начальный сектор | Конечный сектор
    ---------------------------------------------------------------------
       1  |  0:00.00 |    3:39.45   |           0      |      16469
       2  |  3:39.45 |    3:01.09   |       16470      |      30053
       3  |  6:40.54 |    4:03.14   |       30054      |      48292
       4  | 10:43.68 |    3:29.23   |       48293      |      63990
       5  | 14:13.16 |    3:21.62   |       63991      |      79127
       6  | 17:35.03 |    3:06.19   |       79128      |      93096
       7  | 20:41.22 |    4:04.22   |       93097      |     111418
       8  | 24:45.44 |    4:18.42   |      111419      |     130810
       9  | 29:04.11 |    3:36.11   |      130811      |     147021
      10  | 32:40.22 |    3:39.19   |      147022      |     163465
      11  | 36:19.41 |    2:54.37   |      163466      |     176552
      12  | 39:14.03 |    4:04.33   |      176553      |     194885
      13  | 43:18.36 |    3:42.17   |      194886      |     211552
      14  | 47:00.53 |    4:26.43   |      211553      |     231545

Характеристики диапазона извлечения и сообщения об ошибках

Выбранный диапазон

     Имя файла C:\Temp\Образы\Валдай - Мало - Не - покаЖется!.wav

     Пиковый уровень 98.1 %
     Качество диапазона 100.0 %
     CRC копии 8E50D5CD
     Копирование... OK

Ошибок не произошло

Конец отчёта
Данный материал из частной коллекции пользователя и носит характер объявления. Если вас заинтересовала данная тема, вы можете связаться с автором сообщения и обсудить детали обмена. Для более подробной информации прочтите правила обмена.

Страница 1 из 1

new_topic  reply_topic

Текущее время: 23-Окт 15:34
Часовой пояс: GMT + 4

m Сделано с любовью PR-CY.ru Каталог webplus.info