Вход на сайт

Имя:
Пароль:

· Забыли пароль?
logo
Портал Форум
Регистрация Вход


Статистика раздачи

Размер: 402 MB | Зарегистрирован: 11 лет | Торрент скачан: 0 раз
new_topic  reply_topic

  (Pop) Dj Vital - Три желания 2000, APE (image + .cue)

pic
Год выпуска: 2000
Страна: Германия
Производитель: Германия
Жанр: Pop
Номер #: [ Vlad Music ]
Продолжительность: ~ 59 минут

Тип контента: альбом
Аудио кодек: APE
Тип рипа: (image + .cue)
Битрейт аудио: lossless

Треклист: 

01. Три желания
02. Королева
03. Желтый, осенний лист
04. Не забывай
05. Твоя ложь
06. Сладкая
07. Свеча
08. Ну как же поступить
09. Я не буду тебя вспоминать
10. Вернись
11. Часы
12. Вечная память солдатам
13. Моя звезда

Код:

Exact Audio Copy V0.99 prebeta 5 from 4. May 2009

Отчёт EAC об извлечении, выполненном 19. марта 2010, 0:12

Dj Vital / Три желания

Дисковод: PLEXTOR DVDR   PX-800A   Adapter: 0  ID: 0

Режим чтения                 : Достоверность
Использование точного потока : Да
Отключение кэша аудио        : Да
Использование указателей C2  : Нет

Коррекция смещения при чтении                     : 48
Способность читать области Lead-in и Lead-out     : Нет
Заполнение пропущенных сэмплов тишиной            : Да
Удаление блоков с тишиной в начале и конце        : Нет
При вычислениях CRC использовались нулевые сэмплы : Да
Интерфейс                                         : Встроенный Win32-интерфейс для Win NT/2000

Выходной формат : Внутренние WAV-операции
Формат сэмплов  : 44.100 Гц; 16 бит; стерео

TOC извлечённого CD

     Трек |   Старт  | Длительность | Начальный сектор | Конечный сектор
    ---------------------------------------------------------------------
       1  |  0:00.00 |    4:10.32   |           0      |      18781     
       2  |  4:10.32 |    4:20.71   |       18782      |      38352     
       3  |  8:31.28 |    4:20.53   |       38353      |      57905     
       4  | 12:52.06 |    4:32.05   |       57906      |      78310     
       5  | 17:24.11 |    4:42.64   |       78311      |      99524     
       6  | 22:07.00 |    4:13.02   |       99525      |     118501     
       7  | 26:20.02 |    4:53.71   |      118502      |     140547     
       8  | 31:13.73 |    4:37.13   |      140548      |     161335     
       9  | 35:51.11 |    4:59.45   |      161336      |     183805     
      10  | 40:50.56 |    4:05.22   |      183806      |     202202     
      11  | 44:56.03 |    4:53.44   |      202203      |     224221     
      12  | 49:49.47 |    4:42.55   |      224222      |     245426     
      13  | 54:32.27 |    4:00.00   |      245427      |     263426     

Характеристики диапазона извлечения и сообщения об ошибках

Выбранный диапазон

     Имя файла C:\\Temp\\Образы\\Dj Vital - Три желания.wav

     Пиковый уровень 100.0 %
     Качество диапазона 99.9 %
     CRC теста B459B0F4
     CRC копии B459B0F4
     Копирование... OK

Ошибок не произошло

Конец отчёта
Данный материал из частной коллекции пользователя и носит характер объявления. Если вас заинтересовала данная тема, вы можете связаться с автором сообщения и обсудить детали обмена. Для более подробной информации прочтите правила обмена.

Страница 1 из 1

new_topic  reply_topic

Текущее время: 23-Окт 14:34
Часовой пояс: GMT + 4

m Сделано с любовью PR-CY.ru Каталог webplus.info