Вход на сайт

Имя:
Пароль:

· Забыли пароль?
logo
Портал Форум
Регистрация Вход


Статистика раздачи

Размер: 315 MB | Зарегистрирован: 11 лет | Торрент скачан: 0 раз
new_topic  reply_topic

  (Pop) Шпионы как мы - Шпионы как мы 2003, APE (image + .cue)

pic
Год выпуска: 2003
Страна: Германия
Жанр: Pop
Продолжительность: ~ 46 минут


Тип издания: альбом
Аудио кодек: APE
Тип рипа: (image + .cue)
Битрейт аудио: lossless


Трэклист:

01. Чего ты хочешь?
02. Не исчезай
03. Байконур
04. Малютка
05. Милая моя
06. Schon Alles Klar
07. Песня для тебя
08. Крылья на взлет (Аэропла)
09. Прости и прощай
10. Детка-кокетка
11. Лепесток
12. Дрогое небо, другая земля

Код:

Exact Audio Copy V0.99 prebeta 5 from 4. May 2009

Отчёт EAC об извлечении, выполненном 20. августа 2010, 2:59

Шпионы как мы / Шпионы как мы

Дисковод: PLEXTOR DVDR   PX-800A   Adapter: 0  ID: 0

Режим чтения                 : Достоверность
Использование точного потока : Да
Отключение кэша аудио        : Да
Использование указателей C2  : Нет

Комбинированное смещение чтения/записи            : 48
Способность читать области Lead-in и Lead-out     : Нет
Заполнение пропущенных сэмплов тишиной            : Да
Удаление блоков с тишиной в начале и конце        : Нет
При вычислениях CRC использовались нулевые сэмплы : Да
Интерфейс                                         : Установленный внешний ASPI-интерфейс

Выходной формат : Внутренние WAV-операции
Формат сэмплов  : 44.100 Гц; 16 бит; стерео

TOC извлечённого CD

     Трек |   Старт  | Длительность | Начальный сектор | Конечный сектор
    ---------------------------------------------------------------------
       1  |  0:00.00 |    3:13.06   |           0      |      14480     
       2  |  3:13.06 |    3:55.29   |       14481      |      32134     
       3  |  7:08.35 |    4:00.41   |       32135      |      50175     
       4  | 11:09.01 |    3:04.37   |       50176      |      64012     
       5  | 14:13.38 |    3:42.05   |       64013      |      80667     
       6  | 17:55.43 |    3:24.39   |       80668      |      96006     
       7  | 21:20.07 |    4:09.08   |       96007      |     114689     
       8  | 25:29.15 |    2:58.21   |      114690      |     128060     
       9  | 28:27.36 |    4:43.08   |      128061      |     149293     
      10  | 33:10.44 |    3:38.50   |      149294      |     165693     
      11  | 36:49.19 |    4:10.34   |      165694      |     184477     
      12  | 40:59.53 |    4:21.41   |      184478      |     204093     

Характеристики диапазона извлечения и сообщения об ошибках

Выбранный диапазон

     Имя файла C:\Temp\Образы\Шпионы как мы - Шпионы как мы.wav

     Пиковый уровень 98.8 %
     Качество диапазона 99.9 %
     CRC теста A342DBE9
     CRC копии A342DBE9
     Копирование... OK

Ошибок не произошло

Конец отчёта
Данный материал из частной коллекции пользователя и носит характер объявления. Если вас заинтересовала данная тема, вы можете связаться с автором сообщения и обсудить детали обмена. Для более подробной информации прочтите правила обмена.

Страница 1 из 1

new_topic  reply_topic

Текущее время: 23-Окт 16:20
Часовой пояс: GMT + 4

m Сделано с любовью PR-CY.ru Каталог webplus.info