Вход на сайт

Имя:
Пароль:

· Забыли пароль?
logo
Портал Форум
Регистрация Вход


Статистика раздачи

Размер: 377 MB | Зарегистрирован: 11 лет | Торрент скачан: 0 раз
new_topic  reply_topic

  (Pop) Alina (Wegel) - Помни меня 2005, APE (image + .cue)

pic
Год выпуска: 2005
Страна: Германия
Жанр: Pop
Продолжительность: ~ 55 минут


Тип издания: альбом
Аудио кодек: APE
Тип рипа: (image + .cue)
Битрейт аудио: lossless


Трэклист:

01. Хочется, хочется, хочется
02. Помни меня
03. Ромео и Джульета
04. Кошкин блюз
05. Солнышко моё ясное
06. Нарисую мечту
07. Вовка-Вовочка
08. Расскажи, подружка
09. Жизнь за двоих
10. Острова
11. Память
12. Откровение
13. Хочется, хочется, хочется (Karaoke)
14. Вовка-Вовочка (Karaoke)

Код:

Exact Audio Copy V0.99 prebeta 5 from 4. May 2009

Отчёт EAC об извлечении, выполненном 21. августа 2010, 20:28

Alina (Wegel) / Помни меня

Дисковод: PLEXTOR DVDR   PX-800A   Adapter: 0  ID: 0

Режим чтения                 : Достоверность
Использование точного потока : Да
Отключение кэша аудио        : Да
Использование указателей C2  : Нет

Комбинированное смещение чтения/записи            : 48
Способность читать области Lead-in и Lead-out     : Нет
Заполнение пропущенных сэмплов тишиной            : Да
Удаление блоков с тишиной в начале и конце        : Нет
При вычислениях CRC использовались нулевые сэмплы : Да
Интерфейс                                         : Установленный внешний ASPI-интерфейс

Выходной формат : Внутренние WAV-операции
Формат сэмплов  : 44.100 Гц; 16 бит; стерео

TOC извлечённого CD

     Трек |   Старт  | Длительность | Начальный сектор | Конечный сектор
    ---------------------------------------------------------------------
       1  |  0:00.00 |    3:56.22   |           0      |      17721     
       2  |  3:56.22 |    4:26.13   |       17722      |      37684     
       3  |  8:22.35 |    4:11.59   |       37685      |      56568     
       4  | 12:34.19 |    3:35.18   |       56569      |      72711     
       5  | 16:09.37 |    4:43.39   |       72712      |      93975     
       6  | 20:53.01 |    3:33.62   |       93976      |     110012     
       7  | 24:26.63 |    3:55.66   |      110013      |     127703     
       8  | 28:22.54 |    4:24.54   |      127704      |     147557     
       9  | 32:47.33 |    4:05.70   |      147558      |     166002     
      10  | 36:53.28 |    3:10.69   |      166003      |     180321     
      11  | 40:04.22 |    3:28.00   |      180322      |     195921     
      12  | 43:32.22 |    3:04.47   |      195922      |     209768     
      13  | 46:36.69 |    3:56.22   |      209769      |     227490     
      14  | 50:33.16 |    3:53.64   |      227491      |     245029     

Характеристики диапазона извлечения и сообщения об ошибках

Выбранный диапазон

     Имя файла C:\Temp\Образы\Alina (Wegel) - Помни меня.wav

     Пиковый уровень 99.9 %
     Качество диапазона 99.9 %
     CRC копии 09E231EF
     Копирование... OK

Ошибок не произошло

Конец отчёта
Данный материал из частной коллекции пользователя и носит характер объявления. Если вас заинтересовала данная тема, вы можете связаться с автором сообщения и обсудить детали обмена. Для более подробной информации прочтите правила обмена.

Страница 1 из 1

new_topic  reply_topic

Текущее время: 23-Окт 16:08
Часовой пояс: GMT + 4

m Сделано с любовью PR-CY.ru Каталог webplus.info