Вход на сайт

Имя:
Пароль:

· Забыли пароль?
logo
Портал Форум
Регистрация Вход


Статистика раздачи

Размер: 344 MB | Зарегистрирован: 11 лет | Торрент скачан: 0 раз
new_topic  reply_topic

  (Pop) Олег Ай - Караганда - моя столица 1998, APE (image + .cue)

pic
Год выпуска: 1998
Страна: Германия
Жанр: Pop
Продолжительность: ~ 51 минута


Тип издания: альбом
Аудио кодек: APE
Тип рипа: (image + .cue)
Битрейт аудио: lossless


Трэклист:
01. Караганда
02. Ауди (Audi)
03. Деревенская попутная
04. Шура-дура
05. Русский магазин
06. Наши стихи
07. Техно пиво
08. Яйца за DM 1,30
09. Шпермюль (Spermuell)
10. Кукла Катя
11. Клавка - королева прилавка
12. Караганда (remix)

Код:

Exact Audio Copy V0.99 prebeta 5 from 4. May 2009

Отчёт EAC об извлечении, выполненном 8. ноября 2009, 13:36

Олег Ай / Караганда - моя столица

Дисковод: PLEXTOR DVDR   PX-800A   Adapter: 0  ID: 0

Режим чтения                 : Достоверность
Использование точного потока : Да
Отключение кэша аудио        : Да
Использование указателей C2  : Нет

Коррекция смещения при чтении                     : 48
Способность читать области Lead-in и Lead-out     : Нет
Заполнение пропущенных сэмплов тишиной            : Да
Удаление блоков с тишиной в начале и конце        : Нет
При вычислениях CRC использовались нулевые сэмплы : Да
Интерфейс                                         : Встроенный Win32-интерфейс для Win NT/2000

Выходной формат : Внутренние WAV-операции
Формат сэмплов  : 44.100 Гц; 16 бит; стерео

TOC извлечённого CD

     Трек |   Старт  | Длительность | Начальный сектор | Конечный сектор
    ---------------------------------------------------------------------
       1  |  0:00.00 |    4:22.63   |           0      |      19712     
       2  |  4:22.63 |    3:52.23   |       19713      |      37135     
       3  |  8:15.11 |    4:52.44   |       37136      |      59079     
       4  | 13:07.55 |    5:03.14   |       59080      |      81818     
       5  | 18:10.69 |    5:29.63   |       81819      |     106556     
       6  | 23:40.57 |    1:13.62   |      106557      |     112093     
       7  | 24:54.44 |    4:42.60   |      112094      |     133303     
       8  | 29:37.29 |    3:51.30   |      133304      |     150658     
       9  | 33:28.59 |    3:43.12   |      150659      |     167395     
      10  | 37:11.71 |    4:51.19   |      167396      |     189239     
      11  | 42:03.15 |    3:34.35   |      189240      |     205324     
      12  | 45:37.50 |    4:38.19   |      205325      |     226193     

Характеристики диапазона извлечения и сообщения об ошибках

Выбранный диапазон

     Имя файла C:\Temp\Образы\Олег Ай - Караганда - моя столица.wav

     Пиковый уровень 100.0 %
     Качество диапазона 100.0 %
     CRC теста 4605EB88
     CRC копии 4605EB88
     Копирование... OK

Ошибок не произошло

Конец отчёта
Данный материал из частной коллекции пользователя и носит характер объявления. Если вас заинтересовала данная тема, вы можете связаться с автором сообщения и обсудить детали обмена. Для более подробной информации прочтите правила обмена.
На раздаче
Cтатус запрещает скачивать торрент, либо вы не состоите в группе MuViTeam такая хрень и осталась. постой пока на раздаче я с администрацией свяжусь.

Похоже ушли Рождество отмечать.

Страница 1 из 1

new_topic  reply_topic

Текущее время: 23-Сен 01:06
Часовой пояс: GMT + 4

m Сделано с любовью PR-CY.ru Каталог webplus.info