Вход на сайт

Имя:
Пароль:

· Забыли пароль?
logo
Портал Форум
Регистрация Вход


Статистика раздачи

Размер: 394 MB | Зарегистрирован: 11 лет | Торрент скачан: 0 раз
new_topic  reply_topic

  (Pop) Олег Ай - Начинаю хулиганить 2000, APE (image + .cue)

pic
Год выпуска: 2000
Страна: Германия
Жанр: Pop
Продолжительность: ~ 56 минут


Тип издания: альбом
Аудио кодек: APE
Тип рипа: (image + .cue)
Битрейт аудио: lossless


Трэклист:
01. Красные трусы
02. Говно
03. Зелёная бутылочка
04. Половое созревание
05. Проостудифилис
06. Ай девчонки
07. Девочки-помпушки
08. Я-бомж
09. Девушки с прыщём
10. Пук-пук...
11. Зелёные пузыри
12. Вечеринка
13. Частушки-Прон...ушки

Код:

Exact Audio Copy V0.99 prebeta 5 from 4. May 2009

Отчёт EAC об извлечении, выполненном 8. ноября 2009, 12:28

Олег Ай / Начинаю хулиганить

Дисковод: PLEXTOR DVDR   PX-800A   Adapter: 0  ID: 0

Режим чтения                 : Достоверность
Использование точного потока : Да
Отключение кэша аудио        : Да
Использование указателей C2  : Нет

Коррекция смещения при чтении                     : 48
Способность читать области Lead-in и Lead-out     : Нет
Заполнение пропущенных сэмплов тишиной            : Да
Удаление блоков с тишиной в начале и конце        : Нет
При вычислениях CRC использовались нулевые сэмплы : Да
Интерфейс                                         : Встроенный Win32-интерфейс для Win NT/2000

Выходной формат : Внутренние WAV-операции
Формат сэмплов  : 44.100 Гц; 16 бит; стерео

TOC извлечённого CD

     Трек |   Старт  | Длительность | Начальный сектор | Конечный сектор
    ---------------------------------------------------------------------
       1  |  0:00.00 |    4:04.00   |           0      |      18299     
       2  |  4:04.00 |    4:40.00   |       18300      |      39299     
       3  |  8:44.00 |    3:57.33   |       39300      |      57107     
       4  | 12:41.33 |    3:48.20   |       57108      |      74227     
       5  | 16:29.53 |    4:16.19   |       74228      |      93446     
       6  | 20:45.72 |    4:15.00   |       93447      |     112571     
       7  | 25:00.72 |    4:33.16   |      112572      |     133062     
       8  | 29:34.13 |    4:04.00   |      133063      |     151362     
       9  | 33:38.13 |    3:59.70   |      151363      |     169357     
      10  | 37:38.08 |    4:02.09   |      169358      |     187516     
      11  | 41:40.17 |    4:10.45   |      187517      |     206311     
      12  | 45:50.62 |    3:31.63   |      206312      |     222199     
      13  | 49:22.50 |    6:14.40   |      222200      |     250289     

Характеристики диапазона извлечения и сообщения об ошибках

Выбранный диапазон

     Имя файла C:\Temp\Образы\Олег Ай - Начинаю хулиганить.wav

     Пиковый уровень 99.4 %
     Качество диапазона 100.0 %
     CRC теста 8CAD63D2
     CRC копии 8CAD63D2
     Копирование... OK

Ошибок не произошло

Конец отчёта
Данный материал из частной коллекции пользователя и носит характер объявления. Если вас заинтересовала данная тема, вы можете связаться с автором сообщения и обсудить детали обмена. Для более подробной информации прочтите правила обмена.

Страница 1 из 1

new_topic  reply_topic

Текущее время: 23-Окт 14:38
Часовой пояс: GMT + 4

m Сделано с любовью PR-CY.ru Каталог webplus.info