Вход на сайт

Имя:
Пароль:

· Забыли пароль?
logo
Портал Форум
Регистрация Вход


Статистика раздачи

Размер: 354 MB | Зарегистрирован: 11 лет | Торрент скачан: 0 раз
new_topic  reply_topic

  (Pop) Egor - Для тебя 2000, APE (image + .cue)

pic
Год выпуска: 2000
Страна: Германия
Жанр: Pop
Продолжительность: ~ 55 минут


Тип издания: альбом
Аудио кодек: APE
Тип рипа: (image + .cue)
Битрейт аудио: lossless


Трэклист:
01. Intro East Level
02. Для тебя
03. Курносая
04. Серый дождь
05. В памяти моей
06. Осень
07. Побудь со мной
08. Нет любви
09. Не смотри так на меня
10. Ты мне не нравишся
11. Осень (remix)
12. Нет любви (rmx)

Код:

Exact Audio Copy V0.99 prebeta 5 from 4. May 2009

Отчёт EAC об извлечении, выполненном 8. ноября 2009, 17:50

Egor / Для тебя

Дисковод: PLEXTOR DVDR   PX-800A   Adapter: 0  ID: 0

Режим чтения                 : Достоверность
Использование точного потока : Да
Отключение кэша аудио        : Да
Использование указателей C2  : Нет

Коррекция смещения при чтении                     : 48
Способность читать области Lead-in и Lead-out     : Нет
Заполнение пропущенных сэмплов тишиной            : Да
Удаление блоков с тишиной в начале и конце        : Нет
При вычислениях CRC использовались нулевые сэмплы : Да
Интерфейс                                         : Встроенный Win32-интерфейс для Win NT/2000

Выходной формат : Внутренние WAV-операции
Формат сэмплов  : 44.100 Гц; 16 бит; стерео

TOC извлечённого CD

     Трек |   Старт  | Длительность | Начальный сектор | Конечный сектор
    ---------------------------------------------------------------------
       1  |  0:00.00 |    0:26.12   |           0      |       1961     
       2  |  0:26.12 |    3:56.41   |        1962      |      19702     
       3  |  4:22.53 |    3:53.03   |       19703      |      37180     
       4  |  8:15.56 |    4:09.14   |       37181      |      55869     
       5  | 12:24.70 |    5:09.05   |       55870      |      79049     
       6  | 17:34.00 |    4:08.63   |       79050      |      97712     
       7  | 21:42.63 |    3:38.55   |       97713      |     114117     
       8  | 25:21.43 |    4:06.57   |      114118      |     132624     
       9  | 29:28.25 |    3:30.72   |      132625      |     148446     
      10  | 32:59.22 |    3:43.40   |      148447      |     165211     
      11  | 36:42.62 |    5:01.55   |      165212      |     187841     
      12  | 41:44.42 |    7:44.29   |      187842      |     222670     
      13  | 49:28.71 |    5:12.72   |      222671      |     246142     

Характеристики диапазона извлечения и сообщения об ошибках

Выбранный диапазон

     Имя файла C:\Temp\Образы\Egor - Для тебя.wav

     Пиковый уровень 100.0 %
     Качество диапазона 100.0 %
     CRC копии 525698E7
     Копирование... OK

Ошибок не произошло

Конец отчёта
Данный материал из частной коллекции пользователя и носит характер объявления. Если вас заинтересовала данная тема, вы можете связаться с автором сообщения и обсудить детали обмена. Для более подробной информации прочтите правила обмена.
кайфовый альбомчик

Страница 1 из 1

new_topic  reply_topic

Текущее время: 23-Окт 14:21
Часовой пояс: GMT + 4

m Сделано с любовью PR-CY.ru Каталог webplus.info