Вход на сайт

Имя:
Пароль:

· Забыли пароль?
logo
Портал Форум
Регистрация Вход


Статистика раздачи

Размер: 459 MB | Зарегистрирован: 11 лет | Торрент скачан: 0 раз
new_topic  reply_topic

  (Pop) Корпорация - Дубль №1 2003, APE (image + .cue)

pic
Год выпуска: 2003
Страна: Германия
Жанр: Pop
Продолжительность: ~ 68 минут


Тип издания: альбом
Аудио кодек: APE
Тип рипа: (image + .cue)
Битрейт аудио: lossless


Трэклист:
01. Оля
02. Не ищи меня
03. Ты позови меня
04. Счастье моё
05. Давлю на газ
06. О тебе мечтая
07. Ночь
08. Сон
09. Парень
10. Не грусти
11. Ты так хотел
12. Всё...
13. Луна
14. Оля (Караоке)
15. Ты позови (Караоке)
16. Давлю на газ (Караоке)


Доп. информация: Перед снятием образа, диск был проверен программой Tau Anylizer 1.2

Код:

Exact Audio Copy V0.99 prebeta 5 from 4. May 2009

Отчёт EAC об извлечении, выполненном 25. августа 2010, 21:48

Корпорация / Дубль №1

Дисковод: PLEXTOR DVDR   PX-800A   Adapter: 0  ID: 0

Режим чтения                 : Достоверность
Использование точного потока : Да
Отключение кэша аудио        : Да
Использование указателей C2  : Нет

Коррекция смещения при чтении                     : 48
Способность читать области Lead-in и Lead-out     : Нет
Заполнение пропущенных сэмплов тишиной            : Да
Удаление блоков с тишиной в начале и конце        : Нет
При вычислениях CRC использовались нулевые сэмплы : Да
Интерфейс                                         : Встроенный Win32-интерфейс для Win NT/2000

Выходной формат : Внутренние WAV-операции
Формат сэмплов  : 44.100 Гц; 16 бит; стерео

TOC извлечённого CD

     Трек |   Старт  | Длительность | Начальный сектор | Конечный сектор
    ---------------------------------------------------------------------
       1  |  0:00.00 |    3:18.72   |           0      |      14921     
       2  |  3:18.72 |    4:33.61   |       14922      |      35457     
       3  |  7:52.58 |    4:07.38   |       35458      |      54020     
       4  | 12:00.21 |    4:09.36   |       54021      |      72731     
       5  | 16:09.57 |    4:30.59   |       72732      |      93040     
       6  | 20:40.41 |    4:35.08   |       93041      |     113673     
       7  | 25:15.49 |    4:16.12   |      113674      |     132885     
       8  | 29:31.61 |    4:52.62   |      132886      |     154847     
       9  | 34:24.48 |    3:41.50   |      154848      |     171472     
      10  | 38:06.23 |    4:54.34   |      171473      |     193556     
      11  | 43:00.57 |    4:07.45   |      193557      |     212126     
      12  | 47:08.27 |    4:49.14   |      212127      |     233815     
      13  | 51:57.41 |    4:16.55   |      233816      |     253070     
      14  | 56:14.21 |    3:18.72   |      253071      |     267992     
      15  | 59:33.18 |    4:07.38   |      267993      |     286555     
      16  | 63:40.56 |    4:31.20   |      286556      |     306900     

Характеристики диапазона извлечения и сообщения об ошибках

Выбранный диапазон

     Имя файла C:\Temp\Образы\Корпорация - Дубль №1.wav

     Подозрительная позиция 1:06:45

     Пиковый уровень 69.6 %
     Качество диапазона 99.9 %
     CRC копии 9DFCF387
     Копирование завершено

Были ошибки

Конец отчёта
Данный материал из частной коллекции пользователя и носит характер объявления. Если вас заинтересовала данная тема, вы можете связаться с автором сообщения и обсудить детали обмена. Для более подробной информации прочтите правила обмена.

Страница 1 из 1

new_topic  reply_topic

Текущее время: 23-Окт 16:34
Часовой пояс: GMT + 4

m Сделано с любовью PR-CY.ru Каталог webplus.info