Вход на сайт

Имя:
Пароль:

· Забыли пароль?
logo
Портал Форум
Регистрация Вход


Статистика раздачи

Размер: 475 MB | Зарегистрирован: 11 лет | Торрент скачан: 0 раз
new_topic  reply_topic

  (Pop) Павел Dance - Полнолуние 2002, APE (image + .cue)

pic
Год выпуска: 2002
Страна: Германия
Жанр: Pop
Продолжительность: ~ 65 минут

Тип издания: альбом
Аудио кодек: APE
Тип рипа: (image + .cue)
Битрейт аудио: lossless

Трэклист:
01. Полнолуние
02. Летняя ночь
03. Детсво (Bonus Treck)
04. Разлука
05. Я вспоминаю
06. Тополя
07. Снегурочка
08. Чёрная гроза
09. Школьный выпускной
10. Семм цифр
11. Не понять - не простить
12. Капли дождя
13. Летняя ночь (Bonus Treck)
14. Тополя (Караоке)

Код:

Exact Audio Copy V0.99 prebeta 5 from 4. May 2009

Отчёт EAC об извлечении, выполненном 26. августа 2010, 10:45

Павел Dance / Полнолуние

Дисковод: PLEXTOR DVDR   PX-800A   Adapter: 0  ID: 0

Режим чтения                 : Достоверность
Использование точного потока : Да
Отключение кэша аудио        : Да
Использование указателей C2  : Нет

Коррекция смещения при чтении                     : 48
Способность читать области Lead-in и Lead-out     : Нет
Заполнение пропущенных сэмплов тишиной            : Да
Удаление блоков с тишиной в начале и конце        : Нет
При вычислениях CRC использовались нулевые сэмплы : Да
Интерфейс                                         : Встроенный Win32-интерфейс для Win NT/2000

Выходной формат : Внутренние WAV-операции
Формат сэмплов  : 44.100 Гц; 16 бит; стерео

TOC извлечённого CD

     Трек |   Старт  | Длительность | Начальный сектор | Конечный сектор
    ---------------------------------------------------------------------
       1  |  0:00.00 |    3:45.69   |           0      |      16943     
       2  |  3:45.69 |    4:39.01   |       16944      |      37869     
       3  |  8:24.70 |    4:00.37   |       37870      |      55906     
       4  | 12:25.32 |    5:07.71   |       55907      |      79002     
       5  | 17:33.28 |    6:54.43   |       79003      |     110095     
       6  | 24:27.71 |    4:43.72   |      110096      |     131392     
       7  | 29:11.68 |    3:57.70   |      131393      |     149237     
       8  | 33:09.63 |    4:24.38   |      149238      |     169075     
       9  | 37:34.26 |    5:02.04   |      169076      |     191729     
      10  | 42:36.30 |    4:24.35   |      191730      |     211564     
      11  | 47:00.65 |    4:00.55   |      211565      |     229619     
      12  | 51:01.45 |    5:02.21   |      229620      |     252290     
      13  | 56:03.66 |    4:38.38   |      252291      |     273178     
      14  | 60:42.29 |    4:39.48   |      273179      |     294151     

Характеристики диапазона извлечения и сообщения об ошибках

Выбранный диапазон

     Имя файла C:\Temp\Образы\Павел Dance - Полнолуние.wav

     Пиковый уровень 100.0 %
     Качество диапазона 99.9 %
     CRC теста 14EC96D3
     CRC копии 14EC96D3
     Копирование... OK

Ошибок не произошло

Конец отчёта
Данный материал из частной коллекции пользователя и носит характер объявления. Если вас заинтересовала данная тема, вы можете связаться с автором сообщения и обсудить детали обмена. Для более подробной информации прочтите правила обмена.

Страница 1 из 1

new_topic  reply_topic

Текущее время: 23-Окт 15:16
Часовой пояс: GMT + 4

m Сделано с любовью PR-CY.ru Каталог webplus.info