Вход на сайт

Имя:
Пароль:

· Забыли пароль?
logo
Портал Форум
Регистрация Вход


new_topic  reply_topic

  (Pop) Олег Ай - 10 кляйне Аусзидлеров 2000, APE (image + .cue)

pic
Год выпуска: 2000
Страна: Германия
Жанр: Pop
Продолжительность: ~ 64 минуты


Тип издания: альбом
Аудио кодек: APE
Тип рипа: (image + .cue)
Битрейт аудио: lossless


Трэклист:
01. Bmw
02. По немецки-цацки-пецки
03. Улетаю в Фрг
04. Also
05. Се ля ви!
06. 10 кляйне Аусзидлеров
07. Анаша
08. Падает снег
09. 3 дня и 4 ночи
10. Я-собака
11. Время торопит
12. Источник
13. Красные трусы
14. Девочки-помпушки
15. Караганда (караоке)

Код:

Exact Audio Copy V0.99 prebeta 5 from 4. May 2009

Отчёт EAC об извлечении, выполненном 8. ноября 2009, 18:23

Олег Ай / 10 кляйне Аусзидлеров

Дисковод: Plextor 1.0   Adapter: 4  ID: 0

Режим чтения                 : Достоверность
Использование точного потока : Да
Отключение кэша аудио        : Да
Использование указателей C2  : Нет

Коррекция смещения при чтении                     : 48
Способность читать области Lead-in и Lead-out     : Нет
Заполнение пропущенных сэмплов тишиной            : Да
Удаление блоков с тишиной в начале и конце        : Нет
При вычислениях CRC использовались нулевые сэмплы : Да
Интерфейс                                         : Встроенный Win32-интерфейс для Win NT/2000

Выходной формат : Внутренние WAV-операции
Формат сэмплов  : 44.100 Гц; 16 бит; стерео

TOC извлечённого CD

     Трек |   Старт  | Длительность | Начальный сектор | Конечный сектор
    ---------------------------------------------------------------------
       1  |  0:00.00 |    4:44.20   |           0      |      21319     
       2  |  4:44.20 |    4:06.49   |       21320      |      39818     
       3  |  8:50.69 |    3:46.74   |       39819      |      56842     
       4  | 12:37.68 |    5:25.26   |       56843      |      81243     
       5  | 18:03.19 |    4:37.24   |       81244      |     102042     
       6  | 22:40.43 |    3:37.38   |      102043      |     118355     
       7  | 26:18.06 |    3:58.46   |      118356      |     136251     
       8  | 30:16.52 |    4:18.69   |      136252      |     155670     
       9  | 34:35.46 |    4:54.60   |      155671      |     177780     
      10  | 39:30.31 |    3:44.27   |      177781      |     194607     
      11  | 43:14.58 |    3:45.27   |      194608      |     211509     
      12  | 47:00.10 |    4:01.71   |      211510      |     229655     
      13  | 51:02.06 |    4:00.64   |      229656      |     247719     
      14  | 55:02.70 |    4:30.69   |      247720      |     268038     
      15  | 59:33.64 |    4:22.58   |      268039      |     287746     

Характеристики диапазона извлечения и сообщения об ошибках

Выбранный диапазон

     Имя файла C:\Temp\Образы\Олег Ай - 10 кляйне Аусзидлеров.wav

     Пиковый уровень 99.4 %
     Качество диапазона 100.0 %
     CRC теста 182CDCFE
     CRC копии 182CDCFE
     Копирование... OK

Ошибок не произошло

Конец отчёта
Музыка Кайф!!!

Песня Про BMW Просто Нештяк!!!
забыл залить альбом

dimka007 писал(а):

забыл залить альбом


А Мне Всё Равно Нелзя Здес Качат
king-serega это почему?

dimka007 писал(а):

king-serega это почему?
Если Нажымаю "Скачать" то Выходит Такая Фигня:

"Cтатус запрещает скачивать торрент, либо вы не состоите в группе MuViTeam"
А как ты хотел? Читай правила группы, вступай и наслаждайся полной доступности.

Страница 1 из 1

new_topic  reply_topic

Текущее время: 23-Сен 00:14
Часовой пояс: GMT + 4

m Сделано с любовью PR-CY.ru Каталог webplus.info