Вход на сайт

Имя:
Пароль:

· Забыли пароль?
logo
Портал Форум
Регистрация Вход


Статистика раздачи

Размер: 279 MB | Зарегистрирован: 11 лет | Торрент скачан: 0 раз
new_topic  reply_topic

  (Pop ) Royal-G - Для всех, по маленьку 2003, APE (image + .cue)

pic
Год выпуска: 2003
Страна: Германия
Жанр: Pop
Продолжительность: ~ 43 минуты


Тип издания: альбом
Аудио кодек: APE
Тип рипа: (image + .cue)
Битрейт аудио: lossless


Трэклист:
01. Такие дела
02. За окном
03. Мама
04. Знакомая мелодия
05. Хлопают в ладоши
06. В жизни
07. ДиДжей
08. Ты напевала
09. Песня другу
10. Цыганочка 2003

Код:

Exact Audio Copy V0.99 prebeta 5 from 4. May 2009

Отчёт EAC об извлечении, выполненном 2. сентября 2010, 16:41

Royal-G / Для всех, по маленьку

Дисковод: PLEXTOR DVDR   PX-800A   Adapter: 0  ID: 0

Режим чтения                 : Достоверность
Использование точного потока : Да
Отключение кэша аудио        : Да
Использование указателей C2  : Нет

Коррекция смещения при чтении                     : 48
Способность читать области Lead-in и Lead-out     : Нет
Заполнение пропущенных сэмплов тишиной            : Да
Удаление блоков с тишиной в начале и конце        : Нет
При вычислениях CRC использовались нулевые сэмплы : Да
Интерфейс                                         : Встроенный Win32-интерфейс для Win NT/2000

Выходной формат : Внутренние WAV-операции
Формат сэмплов  : 44.100 Гц; 16 бит; стерео

TOC извлечённого CD

     Трек |   Старт  | Длительность | Начальный сектор | Конечный сектор
    ---------------------------------------------------------------------
       1  |  0:00.00 |    4:27.04   |           0      |      20028     
       2  |  4:27.04 |    3:50.61   |       20029      |      37339     
       3  |  8:17.65 |    4:29.20   |       37340      |      57534     
       4  | 12:47.10 |    4:57.18   |       57535      |      79827     
       5  | 17:44.28 |    4:12.06   |       79828      |      98733     
       6  | 21:56.34 |    3:47.58   |       98734      |     115816     
       7  | 25:44.17 |    3:31.20   |      115817      |     131661     
       8  | 29:15.37 |    4:20.22   |      131662      |     151183     
       9  | 33:35.59 |    4:13.25   |      151184      |     170183     
      10  | 37:49.09 |    4:55.28   |      170184      |     192336     

Характеристики диапазона извлечения и сообщения об ошибках

Выбранный диапазон

     Имя файла C:\Temp\Образы\Royal-G - Для всех, по маленьку.wav

     Пиковый уровень 99.4 %
     Качество диапазона 100.0 %
     CRC теста 9E5D4E2E
     CRC копии 9E5D4E2E
     Копирование... OK

Ошибок не произошло

 
AccurateRip: сводка
 
Трек  1  нет в базе данных
Трек  2  нет в базе данных
Трек  3  нет в базе данных
Трек  4  нет в базе данных
Трек  5  нет в базе данных
Трек  6  нет в базе данных
Трек  7  нет в базе данных
Трек  8  нет в базе данных
Трек  9  нет в базе данных
Трек 10  нет в базе данных
 
Ни одного трека нет в базе AccurateRip

Конец отчёта
Данный материал из частной коллекции пользователя и носит характер объявления. Если вас заинтересовала данная тема, вы можете связаться с автором сообщения и обсудить детали обмена. Для более подробной информации прочтите правила обмена.
Альбом зачетный, рекомендую!
Если честно, не думал что у них есть альбом) слышал только одну песню "Мама"
У них есть еще альбом
какой)? можешь название сказать, попробую в mp3 найти оба альбома

dimka007 писал(а):

У них есть еще альбом
Нет У Них Кроме Етот Албом Болше Нету!!!
king-serega откуда такая увереность?

dimka007 писал(а):

king-serega откуда такая увереность?
Как тебе сказат у меня один друг был он с одного етой группе работал вместе и они кроме одного Албома не Выпускалы Я сто прозент уверен димка!!!
Пока DJ Vital их продюссировал, был выпущен один альбом, после того как Dj Vital перебрался в Россию, проект остался, но записи уже в своих студиях...или на dox-records на выпуск альбомов не средств и смысла..

Страница 1 из 1

new_topic  reply_topic

Текущее время: 23-Сен 01:27
Часовой пояс: GMT + 4

m Сделано с любовью PR-CY.ru Каталог webplus.info