Вход на сайт

Имя:
Пароль:

· Забыли пароль?
logo
Портал Форум
Регистрация Вход


Статистика раздачи

Размер: 326 MB | Зарегистрирован: 11 лет | Торрент скачан: 0 раз
new_topic  reply_topic

  (Pop) Laurenta - Там, где нас нет 2002, FLAC (image + .cue)

pic
Год выпуска: 2002
Страна: Германия
Жанр: Pop
Продолжительность: ~ 47 минут


Тип издания: альбом
Аудио кодек: FLAC
Тип рипа: (image + .cue)
Битрейт аудио: lossless


Трэклист:
01. Девчонке-испанка
02. Как хорошо, где...
03. Руки выше (J.J.R.Stupid-Techno-Mix)
04. Дикая орхидея
05. Mega Party (feat. J.J.R.)
06. Летние секреты (J.J.R. vs. Maxi-Beat-Mix)
07. Сказка (Maxi-Beat DJ-RMX)
08. Никогда
09. Ты долго ждал меня
10. Облака
11. Выбирайте поп (feat. J.J.R. & Tann)
12. Дикая орхидея (Maxi-Beat RMX)

Код:

Exact Audio Copy V0.99 prebeta 5 from 4. May 2009

Отчёт EAC об извлечении, выполненном 8. сентября 2010, 17:11

Laurenta / Там, где нас нет

Дисковод: PLEXTOR DVDR   PX-800A   Adapter: 0  ID: 0

Режим чтения                 : Достоверность
Использование точного потока : Да
Отключение кэша аудио        : Да
Использование указателей C2  : Нет

Коррекция смещения при чтении                     : 48
Способность читать области Lead-in и Lead-out     : Нет
Заполнение пропущенных сэмплов тишиной            : Да
Удаление блоков с тишиной в начале и конце        : Нет
При вычислениях CRC использовались нулевые сэмплы : Да
Интерфейс                                         : Встроенный Win32-интерфейс для Win NT/2000

Выходной формат : Внутренние WAV-операции
Формат сэмплов  : 44.100 Гц; 16 бит; стерео

TOC извлечённого CD

     Трек |   Старт  | Длительность | Начальный сектор | Конечный сектор
    ---------------------------------------------------------------------
       1  |  0:00.00 |    3:47.65   |           0      |      17089     
       2  |  3:47.65 |    3:27.71   |       17090      |      32685     
       3  |  7:15.61 |    3:46.55   |       32686      |      49690     
       4  | 11:02.41 |    3:52.25   |       49691      |      67115     
       5  | 14:54.66 |    3:33.18   |       67116      |      83108     
       6  | 18:28.09 |    3:29.58   |       83109      |      98841     
       7  | 21:57.67 |    4:43.42   |       98842      |     120108     
       8  | 26:41.34 |    5:10.69   |      120109      |     143427     
       9  | 31:52.28 |    3:16.42   |      143428      |     158169     
      10  | 35:08.70 |    2:57.67   |      158170      |     171511     
      11  | 38:06.62 |    4:03.69   |      171512      |     189805     
      12  | 42:10.56 |    4:15.27   |      189806      |     208957     

Характеристики диапазона извлечения и сообщения об ошибках

Выбранный диапазон

     Имя файла C:\Temp\Образы\Laurenta - Там, где нас нет.wav

     Пиковый уровень 100.0 %
     Качество диапазона 100.0 %
     CRC теста 3317389A
     CRC копии 3317389A
     Копирование... OK

Ошибок не произошло

Конец отчёта
Данный материал из частной коллекции пользователя и носит характер объявления. Если вас заинтересовала данная тема, вы можете связаться с автором сообщения и обсудить детали обмена. Для более подробной информации прочтите правила обмена.

Страница 1 из 1

new_topic  reply_topic

Текущее время: 23-Окт 16:06
Часовой пояс: GMT + 4

m Сделано с любовью PR-CY.ru Каталог webplus.info