Вход на сайт

Имя:
Пароль:

· Забыли пароль?
logo
Портал Форум
Регистрация Вход


Статистика раздачи

Размер: 262 MB | Зарегистрирован: 11 лет | Торрент скачан: 2 раза
new_topic  reply_topic

  (Pop) Russian Bounce - Bounce 2004, FLAC (image + .cue)

pic
Год выпуска: 2004
Страна: Германия
Жанр: Pop

Тип издания: альбом
Аудио кодек: FLAC
Тип рипа: (image + .cue)
Битрейт аудио: lossless


Трэклист:

01. Intro
02. Алё
03. Не мой день
04. Мисс 2004
05. Bounce (feat. Chagome)
06. Sexy (rmx)
07. Всё пройдёт
08. Глупое лето
09. Не игрушки
10. Дай мне напиться
11. Сделай шаг
12. Сделай громче

Код:

Exact Audio Copy V0.99 prebeta 5 from 4. May 2009

Отчёт EAC об извлечении, выполненном 22. сентября 2010, 1:20

Russian Bounce / Russian Bounce

Дисковод: PLEXTOR DVDR   PX-800A   Adapter: 0  ID: 0

Режим чтения                 : Достоверность
Использование точного потока : Да
Отключение кэша аудио        : Да
Использование указателей C2  : Нет

Коррекция смещения при чтении                     : 48
Способность читать области Lead-in и Lead-out     : Нет
Заполнение пропущенных сэмплов тишиной            : Да
Удаление блоков с тишиной в начале и конце        : Нет
При вычислениях CRC использовались нулевые сэмплы : Да
Интерфейс                                         : Встроенный Win32-интерфейс для Win NT/2000

Выходной формат : Внутренние WAV-операции
Формат сэмплов  : 44.100 Гц; 16 бит; стерео

TOC извлечённого CD

     Трек |   Старт  | Длительность | Начальный сектор | Конечный сектор
    ---------------------------------------------------------------------
       1  |  0:00.00 |    0:51.41   |           0      |       3865     
       2  |  0:51.41 |    3:08.62   |        3866      |      18027     
       3  |  4:00.28 |    3:27.62   |       18028      |      33614     
       4  |  7:28.15 |    3:07.74   |       33615      |      47713     
       5  | 10:36.14 |    3:45.25   |       47714      |      64613     
       6  | 14:21.39 |    3:44.34   |       64614      |      81447     
       7  | 18:05.73 |    3:44.65   |       81448      |      98312     
       8  | 21:50.63 |    4:47.15   |       98313      |     119852     
       9  | 26:38.03 |    3:17.11   |      119853      |     134638     
      10  | 29:55.14 |    3:42.23   |      134639      |     151311     
      11  | 33:37.37 |    2:59.18   |      151312      |     164754     
      12  | 36:36.55 |    4:16.24   |      164755      |     183978     

Характеристики диапазона извлечения и сообщения об ошибках

Выбранный диапазон

     Имя файла C:\Temp\Образы\Russian Bounce - Unknown Title.wav

     Пиковый уровень 100.0 %
     Качество диапазона 100.0 %
     CRC теста 5638FA17
     CRC копии 5638FA17
     Копирование... OK

Ошибок не произошло

Конец отчёта
Данный материал из частной коллекции пользователя и носит характер объявления. Если вас заинтересовала данная тема, вы можете связаться с автором сообщения и обсудить детали обмена. Для более подробной информации прочтите правила обмена.
dimka007
А что не зелененький?
Настоящее имя: Женя
Место Рождения: г.Воронеж
Дата Рождения: 06 Декабря, 1983

Земляк )))
В России не дали ему расскрутиться, а в Германии смог выпустить свой альбом.
dimka007
даже 2 альбома

Страница 1 из 1

new_topic  reply_topic

Текущее время: 23-Окт 16:26
Часовой пояс: GMT + 4

m Сделано с любовью PR-CY.ru Каталог webplus.info