Вход на сайт

Имя:
Пароль:

· Забыли пароль?
logo
Портал Форум
Регистрация Вход


new_topic  reply_topic

  (Euro Disco) C.C. Catch feat. Krayzee - Megamix '98 1998, FLAC (image + .cue)

pic
Год выпуска: 1998
Страна: Германия
Жанр: Euro Disco
Продолжительность: ~ 17 минут


Тип издания: сингл
Аудио кодек: FLAC
Тип рипа: (image + .cue)
Битрейт аудио: lossless


Трэклист:

01. C.C. Catch Megamix '98 (Short Version)
02. C.C. Catch Megamix '98 (Long Version)
03. Soul Survivor ('98 Rap Version)

Код:

Exact Audio Copy V0.99 prebeta 5 from 4. May 2009

Отчёт EAC об извлечении, выполненном 28. октября 2010, 11:57

C.C. Catch feat. Krayzee / Megamix '98

Дисковод: JLMS    XJ-HD166S   Adapter: 0  ID: 1

Режим чтения                 : Достоверность
Использование точного потока : Да
Отключение кэша аудио        : Да
Использование указателей C2  : Нет

Коррекция смещения при чтении                     : 12
Способность читать области Lead-in и Lead-out     : Нет
Заполнение пропущенных сэмплов тишиной            : Да
Удаление блоков с тишиной в начале и конце        : Нет
При вычислениях CRC использовались нулевые сэмплы : Да
Интерфейс                                         : Встроенный Win32-интерфейс для Win NT/2000

Выходной формат : Внутренние WAV-операции
Формат сэмплов  : 44.100 Гц; 16 бит; стерео

TOC извлечённого CD

     Трек |   Старт  | Длительность | Начальный сектор | Конечный сектор
    ---------------------------------------------------------------------
       1  |  0:00.32 |    4:57.50   |          32      |      22356     
       2  |  4:58.07 |    8:01.38   |       22357      |      58469     
       3  | 12:59.45 |    3:03.12   |       58470      |      72206     

Характеристики диапазона извлечения и сообщения об ошибках

Выбранный диапазон

     Имя файла C:\Temp\Образы\C.C. Catch feat. Krayzee - Megamix '98.wav

     Пиковый уровень 99.3 %
     Качество диапазона 100.0 %
     CRC теста AC562984
     CRC копии AC562984
     Копирование... OK

Ошибок не произошло

 
AccurateRip: сводка
 
Трек  1  точное извлечение (доверие 5)  [B7A7B774]
Трек  2  точное извлечение (доверие 5)  [A5207B4F]
Трек  3  точное извлечение (доверие 5)  [5E9F7B97]
 
Все треки извлечены точно

Конец отчёта

Цитата:

Жанр: Euro House
dimka007 ты уверен?

Страница 1 из 1

new_topic  reply_topic

Текущее время: 22-Июн 21:52
Часовой пояс: GMT + 4

m Сделано с любовью PR-CY.ru Каталог webplus.info