Вход на сайт

Имя:
Пароль:

· Забыли пароль?
logo
Портал Форум
Регистрация Вход


Статистика раздачи

Размер: 346 MB | Зарегистрирован: 10 лет | Торрент скачан: 0 раз
new_topic  reply_topic

  (Pop) Rashida - Мальчик моей мечты 2002, FLAC (image + .cue)

pic
Год выпуска: 2002
Страна: Германия
Жанр: Pop
Продолжительность: ~ 49 минут


Тип издания: альбом
Аудио кодек: FLAC
Тип рипа: (image + .cue)
Битрейт аудио: lossless


Трэклист:

01. Долгожданое лето
02. Ты закончила школу
03. Ты виноват
04. Милый мальчик
05. Мы летим
06. Унеси меня с собой
07. Снова на дворе
08. Я нарисую
09. Одиночиство пришло
10. Мальчик мой мечты
11. Не побегу за тобой
12. Ты где-то рядом
13. Не тормози

Код:

Exact Audio Copy V0.99 prebeta 5 from 4. May 2009

Отчёт EAC об извлечении, выполненном 1. ноября 2010, 13:26

Rashida / Мальчик моей мечты

Дисковод: JLMS    XJ-HD166S   Adapter: 0  ID: 1

Режим чтения                 : Достоверность
Использование точного потока : Да
Отключение кэша аудио        : Да
Использование указателей C2  : Нет

Коррекция смещения при чтении                     : 12
Способность читать области Lead-in и Lead-out     : Нет
Заполнение пропущенных сэмплов тишиной            : Да
Удаление блоков с тишиной в начале и конце        : Нет
При вычислениях CRC использовались нулевые сэмплы : Да
Интерфейс                                         : Встроенный Win32-интерфейс для Win NT/2000

Выходной формат : Внутренние WAV-операции
Формат сэмплов  : 44.100 Гц; 16 бит; стерео

TOC извлечённого CD

     Трек |   Старт  | Длительность | Начальный сектор | Конечный сектор
    ---------------------------------------------------------------------
       1  |  0:00.00 |    4:40.15   |           0      |      21014     
       2  |  4:40.15 |    4:03.09   |       21015      |      39248     
       3  |  8:43.24 |    3:33.65   |       39249      |      55288     
       4  | 12:17.14 |    3:17.06   |       55289      |      70069     
       5  | 15:34.20 |    3:15.43   |       70070      |      84737     
       6  | 18:49.63 |    3:59.17   |       84738      |     102679     
       7  | 22:49.05 |    3:47.71   |      102680      |     119775     
       8  | 26:37.01 |    3:26.47   |      119776      |     135272     
       9  | 30:03.48 |    3:16.62   |      135273      |     150034     
      10  | 33:20.35 |    4:56.18   |      150035      |     172252     
      11  | 38:16.53 |    2:53.13   |      172253      |     185240     
      12  | 41:09.66 |    3:37.68   |      185241      |     201583     
      13  | 44:47.59 |    3:48.21   |      201584      |     218704     

Характеристики диапазона извлечения и сообщения об ошибках

Выбранный диапазон

     Имя файла C:\Temp\Образы\Rashida - Мальчик моей мечты.wav

     Пиковый уровень 98.8 %
     Качество диапазона 100.0 %
     CRC теста EDACABEB
     CRC копии EDACABEB
     Копирование... OK

Ошибок не произошло

 
AccurateRip: сводка
 
Трек  1  нет в базе данных
Трек  2  нет в базе данных
Трек  3  нет в базе данных
Трек  4  нет в базе данных
Трек  5  нет в базе данных
Трек  6  нет в базе данных
Трек  7  нет в базе данных
Трек  8  нет в базе данных
Трек  9  нет в базе данных
Трек 10  нет в базе данных
Трек 11  нет в базе данных
Трек 12  нет в базе данных
Трек 13  нет в базе данных
 
Ни одного трека нет в базе AccurateRip

Конец отчёта
Данный материал из частной коллекции пользователя и носит характер объявления. Если вас заинтересовала данная тема, вы можете связаться с автором сообщения и обсудить детали обмена. Для более подробной информации прочтите правила обмена.

Страница 1 из 1

new_topic  reply_topic

Текущее время: 23-Окт 14:07
Часовой пояс: GMT + 4

m Сделано с любовью PR-CY.ru Каталог webplus.info