Вход на сайт

Имя:
Пароль:

· Забыли пароль?
logo
Портал Форум
Регистрация Вход


new_topic  reply_topic

  (Pop / Rock ) Vanilla Ninja - Single Collection (Including Video) - 2005, APE (image + .cue)

pic
Год выпуска: 2005
Страна: Эстония
Жанр: Pop / Rock
Продолжительность: ~ 1 час 20 минут

Тип контента: синглы
Аудио кодек: APE
Тип рипа: (image + .cue)
Битрейт аудио: lossless

Vanilla Ninja — эстонская музыкальная группа из трёх участниц, пользующаяcя успехом в ряде стран Европы, особенно в Эстонии, Германии, Австрии, Швейцарии и Польше.
Четыре девушки из группы Vanilla Ninja - самый важный Поп-Импорт 2004 года в Германии. Никакая другая зарубежная группа не смогла зажечь немецких фанатов так, как четыре симпатичные вокалистки из Эстонии. С любовью названные Ninjas, девушки имели один чартовый хит за другим.

Всё началось для Ленны, Катрин, Маарьи и Пирет, такие имена четырёх девушек, у них дома, в Эстонии. Они встретили друг друга во время их школьных дней в столице Эстонии - Таллинне. Соединение было быстрой и благоприятной смесью дружбы и совместной страсти к музыке. Соединяя различные и прекрасные голоса, девушки начали петь, они всё больше и больше пользовались игрой на инструментах.

Их фантастический талант, их страсть к музыке и их цель приготовили для Ленны и её друзей идеальный путь к верхним позициям чартов. Их первый альбом они записали сами. Без сомнения, это был колоссальный успех. За короткое время продажа альбома превысила 300. 000, и это в той стране, где население всего 1. 4 млн. С таким успехом Vanilla Ninja были настоящими национальными звёздами в Эстонии. После перерыва в эстонских чартах, так же был успех в «холодильнике» - специально для четырёх вокалисток выпустили новый сорт мороженого, с названием группы.
Но девушки хотели большего.
Через некоторое время они осмотрели другие страны, которые они могли бы покорить своей музыкой. Конечно же, они поняли, что в Германии они могут добиться успеха и в ноябре 2003 Vanilla Ninja появились в немецких чартах без промедления.

Их первый сингл в Германии рок-песня Tough Enough была началом их успеха в Германии. С этой песней у них было много выступлений в ТВ- и радиошоу. Это заняло не много времени и каждый знал Vanilla Ninja. Их фанаты не могли дождаться второго сингла Dont Go Too Fast. То же было и с третьей рок-песней - и Liar стал настоящим взрывом.

Весной в Vanilla Ninja появились изменения: Солистка Маарья забеременела и ушла из группы, чтобы ухаживать за ребёнком. Только с тремя солистками музыкальное разнообразие Vanilla Ninja было уменьшено, так что Ленна, Катрин и Пирет искали что-нибудь непохожее. Так они нашли молодую солистку Триину. С первого же момента она вписалась в группу.

Летом 2004 девушки выпустили свой первый альбом в Германии, который все ожидали с нетерпением. В альбоме Traces of Sadness, помимо рок-песен, были также и некоторые песни «помягче». Эти «мягкие» песни показали, что Vanilla Ninja могут петь по-настоящему отлично. После 14 песен с этого альбома исчезли любые сомнения насчёт их таланта, их решительности и их неограниченной энергетики. С третьем местом в альбомных чартах, Traces of Sadness был награждён золотом.

В таком обличье Пирет и её коллеги завоевали не только Германию, но и Австрию, Швейцарию, Польшу, а так же и их родную страну Эстонию. Выступления в The Dome и Bravo SuperShow и на других концертах с того времени заняли важное место в творчестве Vanilla Ninja.

Осенью Vanilla Ninja представили свою первую рок-балладу. Эмоционально сыгранная песня When the Indians Cry было по-настоящему убедительным выступлением. Так же и видеоклип на эту песню был прекрасно выбран. Он был записан на красивом берегу Мальорка. Самый новый сингл Vanilla Ninja Blue Tattoo показал нам другую сторону Vanilla Ninja, после рок-стороны и стороны «помягче» они показали нам свою тёмную сторону. Vanilla Ninja просто безупречны!



pic
01 - Tough Enough
(24-nov-2003)


01. Tough Enough (Radio Edit)
02. Tough Enough (Ambient Mix)
03. Tough Enough (Extended Version)
04. Tough Enough (Unplugged Version)
05. Tough Enough (Video)

Код:

Exact Audio Copy V0.99 prebeta 5 from 4. May 2009

Отчёт EAC об извлечении, выполненном 12. ноября 2010, 18:56

Vanilla Ninja / Tough Enough

Дисковод: TSSTcorpCDDVDW SH-S223B   Adapter: 2  ID: 0

Режим чтения                 : Достоверность
Использование точного потока : Да
Отключение кэша аудио        : Да
Использование указателей C2  : Нет

Коррекция смещения при чтении                     : 6
Способность читать области Lead-in и Lead-out     : Нет
Заполнение пропущенных сэмплов тишиной            : Да
Удаление блоков с тишиной в начале и конце        : Нет
При вычислениях CRC использовались нулевые сэмплы : Да
Интерфейс                                         : Встроенный Win32-интерфейс для Win NT/2000

Выходной формат : Внутренние WAV-операции
Формат сэмплов  : 44.100 Гц; 16 бит; стерео

TOC извлечённого CD

     Трек |   Старт  | Длительность | Начальный сектор | Конечный сектор
    ---------------------------------------------------------------------
       1  |  0:00.00 |    3:24.00   |           0      |      15299     
       2  |  3:24.00 |    3:24.16   |       15300      |      30615     
       3  |  6:48.16 |    6:25.01   |       30616      |      59491     
       4  | 13:13.17 |    3:24.00   |       59492      |      74791     
       5  | 19:09.17 |   20:47.61   |       86192      |     179777     

Характеристики диапазона извлечения и сообщения об ошибках

Выбранный диапазон

     Имя файла M:\Эстонская музыка\Vanilla Ninja (lossless)\Vanilla Ninja - Single Collection (2005)\01 - Tough Enough\Vanilla Ninja - Tough Enough.wav

     Пиковый уровень 99.0 %
     Качество диапазона 100.0 %
     CRC теста E2DAD816
     CRC копии E2DAD816
     Копирование... OK

Ошибок не произошло

 
AccurateRip: сводка
 
Трек  1  точное извлечение (доверие 1)  [B5EDBE42]
Трек  2  точное извлечение (доверие 1)  [3966B1AD]
Трек  3  точное извлечение (доверие 1)  [4D7BDAC8]
Трек  4  точное извлечение (доверие 1)  [760494CC]
 
Все треки извлечены точно

Конец отчёта



pic
02 - Don't Go Too Fast
(22-mar-2004)


01. Don't Go Too Fast (Single Version)
02. Don't Go Too Fast (Extended Version)
03. Don't Go Too Fast (Unplugged Version)
04. Don't Go Too Fast (Radio Edit)
05. Don't Go Too Fast (Video)

Код:

Exact Audio Copy V0.99 prebeta 5 from 4. May 2009

Отчёт EAC об извлечении, выполненном 12. ноября 2010, 19:34

Vanilla Ninja / Don't Go Too Fast

Дисковод: TSSTcorpCDDVDW SH-S223B   Adapter: 2  ID: 0

Режим чтения                 : Достоверность
Использование точного потока : Да
Отключение кэша аудио        : Да
Использование указателей C2  : Нет

Коррекция смещения при чтении                     : 6
Способность читать области Lead-in и Lead-out     : Нет
Заполнение пропущенных сэмплов тишиной            : Да
Удаление блоков с тишиной в начале и конце        : Нет
При вычислениях CRC использовались нулевые сэмплы : Да
Интерфейс                                         : Встроенный Win32-интерфейс для Win NT/2000

Выходной формат : Внутренние WAV-операции
Формат сэмплов  : 44.100 Гц; 16 бит; стерео

TOC извлечённого CD

     Трек |   Старт  | Длительность | Начальный сектор | Конечный сектор
    ---------------------------------------------------------------------
       1  |  0:00.00 |    3:17.00   |           0      |      14774     
       2  |  3:17.00 |    5:52.74   |       14775      |      41248     
       3  |  9:09.74 |    3:17.74   |       41249      |      56097     
       4  | 12:27.73 |    3:13.73   |       56098      |      70645     
       5  | 18:13.71 |   35:36.18   |       82046      |     242263     

Характеристики диапазона извлечения и сообщения об ошибках

Выбранный диапазон

     Имя файла M:\Эстонская музыка\Vanilla Ninja (lossless)\Vanilla Ninja - Single Collection (2005)\02 - Don't Go Too Fast\Vanilla Ninja - Don't Go Too Fast.wav

     Пиковый уровень 98.1 %
     Качество диапазона 100.0 %
     CRC теста 61D492B0
     CRC копии 61D492B0
     Копирование... OK

Ошибок не произошло

 
AccurateRip: сводка
 
Трек  1  нет в базе данных
Трек  2  нет в базе данных
Трек  3  нет в базе данных
Трек  4  нет в базе данных
 
Ни одного трека нет в базе AccurateRip

Конец отчёта



pic
03 - Liar
(24-may-2004)


01. Liar (Radio Version)
02. Liar (Extended Version)
03. Liar (Unplugged Version)
04. Heartless
05. Liar (Video)

Код:

Exact Audio Copy V0.99 prebeta 5 from 4. May 2009

Отчёт EAC об извлечении, выполненном 12. ноября 2010, 19:46

Vanilla Ninja / Liar

Дисковод: TSSTcorpCDDVDW SH-S223B   Adapter: 2  ID: 0

Режим чтения                 : Достоверность
Использование точного потока : Да
Отключение кэша аудио        : Да
Использование указателей C2  : Нет

Коррекция смещения при чтении                     : 6
Способность читать области Lead-in и Lead-out     : Нет
Заполнение пропущенных сэмплов тишиной            : Да
Удаление блоков с тишиной в начале и конце        : Нет
При вычислениях CRC использовались нулевые сэмплы : Да
Интерфейс                                         : Встроенный Win32-интерфейс для Win NT/2000

Выходной формат : Внутренние WAV-операции
Формат сэмплов  : 44.100 Гц; 16 бит; стерео

TOC извлечённого CD

     Трек |   Старт  | Длительность | Начальный сектор | Конечный сектор
    ---------------------------------------------------------------------
       1  |  0:00.00 |    3:38.33   |           0      |      16382     
       2  |  3:38.33 |    3:37.01   |       16383      |      32658     
       3  |  7:15.34 |    8:40.37   |       32659      |      71695     
       4  | 15:55.71 |    3:49.24   |       71696      |      88894     
       5  | 22:17.20 |   39:57.18   |      100295      |     280087     

Характеристики диапазона извлечения и сообщения об ошибках

Выбранный диапазон

     Имя файла M:\Эстонская музыка\Vanilla Ninja (lossless)\Vanilla Ninja - Single Collection (2005)\03 - Liar\Vanilla Ninja - Liar.wav

     Пиковый уровень 100.0 %
     Качество диапазона 100.0 %
     CRC теста 7C35E337
     CRC копии 7C35E337
     Копирование... OK

Ошибок не произошло

 
AccurateRip: сводка
 
Трек  1  нет в базе данных
Трек  2  нет в базе данных
Трек  3  нет в базе данных
Трек  4  нет в базе данных
 
Ни одного трека нет в базе AccurateRip

Конец отчёта



pic
04 - When The Indians Cry
(23-aug-2004)


01. When The Indians Cry (Radio Edit)
02. When The Indians Cry (Unplugged Version)
03. When The Indians Cry (Extended Version)
04. When The Indians Cry (Video)

Код:

Exact Audio Copy V0.99 prebeta 5 from 4. May 2009

Отчёт EAC об извлечении, выполненном 12. ноября 2010, 20:04

Vanilla Ninja / When The Indians Cry

Дисковод: TSSTcorpCDDVDW SH-S223B   Adapter: 2  ID: 0

Режим чтения                 : Достоверность
Использование точного потока : Да
Отключение кэша аудио        : Да
Использование указателей C2  : Нет

Коррекция смещения при чтении                     : 6
Способность читать области Lead-in и Lead-out     : Нет
Заполнение пропущенных сэмплов тишиной            : Да
Удаление блоков с тишиной в начале и конце        : Нет
При вычислениях CRC использовались нулевые сэмплы : Да
Интерфейс                                         : Встроенный Win32-интерфейс для Win NT/2000

Выходной формат : Внутренние WAV-операции
Формат сэмплов  : 44.100 Гц; 16 бит; стерео

TOC извлечённого CD

     Трек |   Старт  | Длительность | Начальный сектор | Конечный сектор
    ---------------------------------------------------------------------
       1  |  0:00.00 |    3:35.00   |           0      |      16124     
       2  |  3:35.00 |    3:35.00   |       16125      |      32249     
       3  |  7:10.00 |    5:49.74   |       32250      |      58498     
       4  | 15:31.74 |   14:14.65   |       69899      |     134013     

Характеристики диапазона извлечения и сообщения об ошибках

Выбранный диапазон

     Имя файла M:\Эстонская музыка\Vanilla Ninja (lossless)\Vanilla Ninja - Single Collection (2005)\04 - When The Indians Cry\Vanilla Ninja - When The Indians Cry.wav

     Пиковый уровень 96.9 %
     Качество диапазона 100.0 %
     CRC теста 3AB23144
     CRC копии 3AB23144
     Копирование... OK

Ошибок не произошло

 
AccurateRip: сводка
 
Трек  1  нет в базе данных
Трек  2  нет в базе данных
Трек  3  нет в базе данных
 
Ни одного трека нет в базе AccurateRip

Конец отчёта



pic
05 - Blue Tattoo
(15-nov-2004)


01. Blue Tattoo (Radio Edit)
02. Blue Tattoo (Unplugged Version)
03. Blue Tattoo (Extended Version)
04. Blue Tattoo (Video)

Код:

Exact Audio Copy V0.99 prebeta 5 from 4. May 2009

Отчёт EAC об извлечении, выполненном 12. ноября 2010, 20:27

Vanilla Ninja / Blue Tattoo

Дисковод: TSSTcorpCDDVDW SH-S223B   Adapter: 2  ID: 0

Режим чтения                 : Достоверность
Использование точного потока : Да
Отключение кэша аудио        : Да
Использование указателей C2  : Нет

Коррекция смещения при чтении                     : 6
Способность читать области Lead-in и Lead-out     : Нет
Заполнение пропущенных сэмплов тишиной            : Да
Удаление блоков с тишиной в начале и конце        : Нет
При вычислениях CRC использовались нулевые сэмплы : Да
Интерфейс                                         : Встроенный Win32-интерфейс для Win NT/2000

Выходной формат : Внутренние WAV-операции
Формат сэмплов  : 44.100 Гц; 16 бит; стерео

TOC извлечённого CD

     Трек |   Старт  | Длительность | Начальный сектор | Конечный сектор
    ---------------------------------------------------------------------
       1  |  0:00.00 |    4:10.00   |           0      |      18749     
       2  |  4:10.00 |    4:09.28   |       18750      |      37452     
       3  |  8:19.28 |    9:20.17   |       37453      |      79469     
       4  | 20:11.45 |    8:03.17   |       90870      |     127111     
       5  | 28:14.62 |    0:04.02   |      127112      |     127413     

Характеристики диапазона извлечения и сообщения об ошибках

Выбранный диапазон

     Имя файла M:\Эстонская музыка\Vanilla Ninja (lossless)\Vanilla Ninja - Single Collection (2005)\05 - Blue Tattoo\Vanilla Ninja - Blue Tattoo.wav

     Пиковый уровень 100.0 %
     Качество диапазона 100.0 %
     CRC теста 916A453A
     CRC копии 916A453A
     Копирование... OK

Ошибок не произошло

 
AccurateRip: сводка
 
Трек  1  точное извлечение (доверие 1)  [03197F16]
Трек  2  нет в базе данных
Трек  3  нет в базе данных
 
 1 трек(и) скопированы точно
 2 трек(и) не содержатся в базе AccurateRip

Некоторые треки не прошли проверку на точность

Конец отчёта



Релиз: pic
dimassamid спасибо тебе огромное за любимую группу! База как всегда тупит с проверкой )))
Сингл Tough Enough супер.
dimassamid я думаю, что можно бы и в кумиры их биографию прикрутить.
hello, how can I get this download? Do you have the link, dimassamid?
hardtymz it's only for exchange or sell. It's no for free share.

Страница 1 из 1

new_topic  reply_topic

Текущее время: 23-Сен 00:53
Часовой пояс: GMT + 4

m Сделано с любовью PR-CY.ru Каталог webplus.info